Статистика раздачи
Размер:  25,3 GB   |    Зарегистрирован:  2 месяца 19 дней   |    Скачан:  0 раз
Сидов:  5  [  0 KB/s  ]   Личеров:  1  [  0 KB/s  ]  
 
     
 
 

Гость ®

Пол:
Не указан

Куба-2
Год выпуска: 2019
Производство: Киностудия КИТ
Жанр: детектив
Продолжительность: ~00:48:00 серия
Субтитры: нет
Режиссёр: Дмитрий Коробкин
В ролях: Алексей Макаров, Екатерина Никитина, Митя Лабуш, Константин Житинев, Александр Лыков, Владимир Стеклов, Елена Сафонова, Мария Голубкина, Константин Быков, Евгений Зеленский, Татьяна Яхина, Вячеслав Бондарчук, Александр Сергеев, Алена Левкович, Александр Рискин, Юрий Скулябин, Виктория Богатырёва, Юрий Архангельский, Юля Арутюнова, Михаил Шульц
Описание: Майор Кубанков по прозвищу Куба сразу после повышения в столице вынужден вернуться в Среднереченск, поскольку всплывают новые детали в расследовании загадочной гибели его возлюбленной – Эрики Одинцовой. Докопаться до сути этого дела Кубе всячески помогают сотрудники местного РОВД. Однако, на отдел ещё выпадают самые запутанные преступления в городе: начиная поиском пропавших людей и заканчивая кражей ценнейших икон.

Реклама: Нет.
Кинопоиск
Все раздачи сериала
Sample
Качество: WEBRip 1080p - ExKinoRay
Формат: MKV
Видео кодек: H.264
Аудио кодек: AC3
Видео: MPEG4 AVC Video, H264, 16:9, 1920x1080, 25 fps, ~6000 kbps, 0.116 bit/pixel
Аудио: AC3 Dolby Digital, 48.0 kHz, 2/0 (L,R) ch, 192 kbps

Внимание! Раздача ведётся путём добавления новых серий

Раздача ведётся путём добавления новых серий, при каждом добавлении создаётся новый торрент. Чтобы начать докачку новой серии, пользователям необходимо сделать следующее:
- Остановить скачивание.
- Удалить старый торрент у себя из клиента (старые серии удалять не надо).
- Скачать новый торрент и запустить его у себя в клиенте вместо старого, при этом указать клиенту путь в старую папку куда и должно происходить скачивание новых серий.
Ваш клиент при этом должен произвести хеширование (проверку) старой папки (если не производит сам - помогите ему сделать это), и будет докачивать только те серии которых у вас ещё нет. Старые серии при этом не удаляются, а продолжают раздаваться!
Если вы уже удалили старые серии, то предотвратить повторную закачку старых серий можно, отжав галочку в соответствующих местах при запуске нового торрента. По возможности, желательно не удалять старые серии как можно дольше, чтобы релизер не столько продолжал раздавать старые серии, а смог сконцентрироваться на новых.

MI

General
Unique ID : 173091323215926960292013488108061472438 (0x82382D1EB034902C934EF5EA9DC236B6)
Complete name : D:\Kuba-2.Lichnoe.delo.2019.WEB-DL.(1080p).ExKinoRay\Kuba-2.Lichnoe.delo.(01.seriya).2019.WEB-DL.(1080p).ExKinoRay.mkv
Format : Matroska
Format version : Version 4 / Version 2
File size : 2.08 GiB
Duration : 48 min 18 s
Overall bit rate mode : Constant
Overall bit rate : 6 154 kb/s
Encoded date : UTC 2019-09-15 13:15:48
Writing application : mkvmerge v6.9.1 ('Blue Panther') 64bit built on Apr 18 2014 18:23:38
Writing library : libebml v1.3.0 + libmatroska v1.4.1
Video
ID : 1
Format : AVC
Format/Info : Advanced Video Codec
Format profile : High@L4.1
Format settings : 2 Ref Frames
Format settings, CABAC : No
Format settings, ReFrames : 2 frames
Codec ID : V_MPEG4/ISO/AVC
Duration : 48 min 18 s
Bit rate mode : Constant
Bit rate : 6 000 kb/s
Width : 1 920 pixels
Height : 1 080 pixels
Display aspect ratio : 16:9
Frame rate mode : Constant
Frame rate : 25.000 FPS
Standard : PAL
Color space : YUV
Chroma subsampling : 4:2:0
Bit depth : 8 bits
Scan type : Progressive
Bits/(Pixel*Frame) : 0.116
Stream size : 1.97 GiB (95%)
Default : Yes
Forced : No
Color range : Limited
Color primaries : BT.709
Transfer characteristics : BT.709
Matrix coefficients : BT.709
Audio
ID : 2
Format : AC-3
Format/Info : Audio Coding 3
Codec ID : A_AC3
Duration : 48 min 18 s
Bit rate mode : Constant
Bit rate : 192 kb/s
Channel(s) : 2 channels
Channel positions : Front: L R
Sampling rate : 48.0 kHz
Frame rate : 31.250 FPS (1536 SPF)
Bit depth : 16 bits
Compression mode : Lossy
Stream size : 66.4 MiB (3%)
Language : Russian
Service kind : Complete Main
Default : Yes
Forced : No

Скриншоты


[cybertorrent.ru].t6615.torrent 
Торрент: Зарегистрирован [ 2019-09-24 17:28 ] · 5AEE3795EC6806D2FC728FCD32B917DB6287FBBD

Скачать .torrent

Скачать

128 KB

Статус: проверено
Скачан: 0 раз
Размер: 25,3 GB
terms.php
Показать сообщения:    

Текущее время: 14-Дек 08:11

Часовой пояс: UTC ± 0



Вы не можете начинать темы
Вы не можете отвечать на сообщения
Вы не можете редактировать свои сообщения
Вы не можете удалять свои сообщения
Вы не можете голосовать в опросах
Вы не можете прикреплять файлы к сообщениям
Вы можете скачивать файлы