Статистика раздачи
Размер:  16,9 GB   |    Зарегистрирован:  2 месяца 19 дней   |    Скачан:  0 раз
Сидов:  2  [  0 KB/s  ]   Личеров:  1  [  0 KB/s  ]  
 
     
 
 

Гость ®

Пол:
Не указан

Куба-2
Год выпуска: 2019
Производство: Киностудия КИТ
Жанр: детектив
Продолжительность: ~00:48:00 серия
Субтитры: нет
Режиссёр: Дмитрий Коробкин
В ролях: Алексей Макаров, Екатерина Никитина, Митя Лабуш, Константин Житинев, Александр Лыков, Владимир Стеклов, Елена Сафонова, Мария Голубкина, Константин Быков, Евгений Зеленский, Татьяна Яхина, Вячеслав Бондарчук, Александр Сергеев, Алена Левкович, Александр Рискин, Юрий Скулябин, Виктория Богатырёва, Юрий Архангельский, Юля Арутюнова, Михаил Шульц
Описание: Майор Кубанков по прозвищу Куба сразу после повышения в столице вынужден вернуться в Среднереченск, поскольку всплывают новые детали в расследовании загадочной гибели его возлюбленной – Эрики Одинцовой. Докопаться до сути этого дела Кубе всячески помогают сотрудники местного РОВД. Однако, на отдел ещё выпадают самые запутанные преступления в городе: начиная поиском пропавших людей и заканчивая кражей ценнейших икон.

Реклама: Нет.
Кинопоиск
Все раздачи сериала
Sample
Качество: WEBRip 720p - ExKinoRay
Формат: MKV
Видео кодек: H.264
Аудио кодек: AC3
Видео: MPEG4 AVC Video, H264, 1280x720, 25 fps, ~4000 kbps, 0.174 bit/pixel
Аудио: AC3 Dolby Digital, 48.0 kHz, 2/0 (L,R) ch, 192 kbps

Внимание! Раздача ведётся путём добавления новых серий

Раздача ведётся путём добавления новых серий, при каждом добавлении создаётся новый торрент. Чтобы начать докачку новой серии, пользователям необходимо сделать следующее:
- Остановить скачивание.
- Удалить старый торрент у себя из клиента (старые серии удалять не надо).
- Скачать новый торрент и запустить его у себя в клиенте вместо старого, при этом указать клиенту путь в старую папку куда и должно происходить скачивание новых серий.
Ваш клиент при этом должен произвести хеширование (проверку) старой папки (если не производит сам - помогите ему сделать это), и будет докачивать только те серии которых у вас ещё нет. Старые серии при этом не удаляются, а продолжают раздаваться!
Если вы уже удалили старые серии, то предотвратить повторную закачку старых серий можно, отжав галочку в соответствующих местах при запуске нового торрента. По возможности, желательно не удалять старые серии как можно дольше, чтобы релизер не столько продолжал раздавать старые серии, а смог сконцентрироваться на новых.

MI

General
Unique ID : 207447049988087825726208385582263426992 (0x9C10D93A39790A44813727C9BD57DFB0)
Complete name : D:\Kuba-2.Lichnoe.delo.2019.WEB-DLRip.(720p).ExKinoRay\Kuba-2.Lichnoe.delo.(01.seriya).2019.WEB-DLRip.(720p).ExKinoRay.mkv
Format : Matroska
Format version : Version 4 / Version 2
File size : 1.41 GiB
Duration : 48 min 18 s
Overall bit rate : 4 193 kb/s
Encoded date : UTC 2019-09-15 14:21:30
Writing application : mkvmerge v6.9.1 ('Blue Panther') 64bit built on Apr 18 2014 18:23:38
Writing library : libebml v1.3.0 + libmatroska v1.4.1
Video
ID : 1
Format : AVC
Format/Info : Advanced Video Codec
Format profile : High@L4.1
Format settings : CABAC / 9 Ref Frames
Format settings, CABAC : Yes
Format settings, ReFrames : 9 frames
Codec ID : V_MPEG4/ISO/AVC
Duration : 48 min 18 s
Bit rate : 4 000 kb/s
Width : 1 280 pixels
Height : 720 pixels
Display aspect ratio : 16:9
Frame rate mode : Constant
Frame rate : 25.000 FPS
Color space : YUV
Chroma subsampling : 4:2:0
Bit depth : 8 bits
Scan type : Progressive
Bits/(Pixel*Frame) : 0.174
Stream size : 1.32 GiB (93%)
Writing library : x264 core 146 r2538 121396c
Encoding settings : cabac=1 / ref=9 / deblock=1:-3:-3 / analyse=0x3:0x113 / me=umh / subme=11 / psy=1 / psy_rd=1.00:0.20 / mixed_ref=1 / me_range=32 / chroma_me=1 / trellis=2 / 8x8dct=1 / cqm=0 / deadzone=21,11 / fast_pskip=1 / chroma_qp_offset=-3 / threads=24 / lookahead_threads=10 / sliced_threads=0 / nr=0 / decimate=0 / interlaced=0 / bluray_compat=0 / constrained_intra=0 / bframes=11 / b_pyramid=2 / b_adapt=2 / b_bias=0 / direct=3 / weightb=1 / open_gop=0 / weightp=2 / keyint=250 / keyint_min=25 / scenecut=40 / intra_refresh=0 / rc_lookahead=60 / rc=2pass / mbtree=1 / bitrate=4000 / ratetol=1.0 / qcomp=0.60 / qpmin=0 / qpmax=69 / qpstep=4 / cplxblur=20.0 / qblur=0.5 / vbv_maxrate=14000 / vbv_bufsize=14000 / nal_hrd=none / filler=0 / ip_ratio=1.40 / aq=3:1.40
Default : No
Forced : No
Color range : Limited
Color primaries : BT.709
Transfer characteristics : BT.709
Matrix coefficients : BT.709
Audio
ID : 2
Format : AC-3
Format/Info : Audio Coding 3
Codec ID : A_AC3
Duration : 48 min 18 s
Bit rate mode : Constant
Bit rate : 192 kb/s
Channel(s) : 2 channels
Channel positions : Front: L R
Sampling rate : 48.0 kHz
Frame rate : 31.250 FPS (1536 SPF)
Bit depth : 16 bits
Compression mode : Lossy
Stream size : 66.4 MiB (5%)
Language : Russian
Service kind : Complete Main
Default : Yes
Forced : Yes

Скриншоты


[cybertorrent.ru].t6616.torrent 
Торрент: Зарегистрирован [ 2019-09-24 17:28 ] · 26743302C0A363CC7B4B8485996E8763CE3F2AE2

Скачать .torrent

Скачать

86 KB

Статус: проверено
Скачан: 0 раз
Размер: 16,9 GB
terms.php
Показать сообщения:    

Текущее время: 14-Дек 07:53

Часовой пояс: UTC ± 0



Вы не можете начинать темы
Вы не можете отвечать на сообщения
Вы не можете редактировать свои сообщения
Вы не можете удалять свои сообщения
Вы не можете голосовать в опросах
Вы не можете прикреплять файлы к сообщениям
Вы можете скачивать файлы