Статистика раздачи
Размер:  8,19 GB   |    Зарегистрирован:  2 месяца 17 дней   |    Скачан:  0 раз

Полного источника не было: Никогда

Личеров:  3  [  0 KB/s  ]  
 
     
 
 

Гость ®

Пол:
Не указан

Куба-2
Год выпуска: 2019
Производство: Киностудия КИТ
Жанр: детектив
Продолжительность: ~00:48:00 серия
Субтитры: нет
Режиссёр: Дмитрий Коробкин
В ролях: Алексей Макаров, Екатерина Никитина, Митя Лабуш, Константин Житинев, Александр Лыков, Владимир Стеклов, Елена Сафонова, Мария Голубкина, Константин Быков, Евгений Зеленский, Татьяна Яхина, Вячеслав Бондарчук, Александр Сергеев, Алена Левкович, Александр Рискин, Юрий Скулябин, Виктория Богатырёва, Юрий Архангельский, Юля Арутюнова, Михаил Шульц
Описание: Майор Кубанков по прозвищу Куба сразу после повышения в столице вынужден вернуться в Среднереченск, поскольку всплывают новые детали в расследовании загадочной гибели его возлюбленной – Эрики Одинцовой. Докопаться до сути этого дела Кубе всячески помогают сотрудники местного РОВД. Однако, на отдел ещё выпадают самые запутанные преступления в городе: начиная поиском пропавших людей и заканчивая кражей ценнейших икон.

Реклама: Нет.
Кинопоиск
Все раздачи сериала
Sample
Качество: WEBRip - ExKinoRay
Формат: AVI
Видео кодек: XviD
Аудио кодек: AC3
Видео: 720x400 (1.80:1), 25 fps, XviD ~1800 kbps avg, 0.253 bit/pixel
Аудио: 48.0 kHz, AC3 Dolby Digital, 2/0 (L,R) ch, ~ 192 kbps

Внимание! Раздача ведётся путём добавления новых серий

Раздача ведётся путём добавления новых серий, при каждом добавлении создаётся новый торрент. Чтобы начать докачку новой серии, пользователям необходимо сделать следующее:
- Остановить скачивание.
- Удалить старый торрент у себя из клиента (старые серии удалять не надо).
- Скачать новый торрент и запустить его у себя в клиенте вместо старого, при этом указать клиенту путь в старую папку куда и должно происходить скачивание новых серий.
Ваш клиент при этом должен произвести хеширование (проверку) старой папки (если не производит сам - помогите ему сделать это), и будет докачивать только те серии которых у вас ещё нет. Старые серии при этом не удаляются, а продолжают раздаваться!
Если вы уже удалили старые серии, то предотвратить повторную закачку старых серий можно, отжав галочку в соответствующих местах при запуске нового торрента. По возможности, желательно не удалять старые серии как можно дольше, чтобы релизер не столько продолжал раздавать старые серии, а смог сконцентрироваться на новых.

MI

General
Complete name : D:\Kuba.s02.(2019).WEB-DLRip.ExKinoRay\Kuba.s02.e01.(2019).WEB-DLRip.ExKinoRay.avi
Format : AVI
Format/Info : Audio Video Interleave
File size : 699 MiB
Duration : 48 min 18 s
Overall bit rate : 2 024 kb/s
Writing application : VirtualDubMod 1.5.10.2 (build 2540/release)
Writing library : VirtualDubMod build 2540/release
Video
ID : 0
Format : MPEG-4 Visual
Format profile : Advanced Simple@L5
Format settings : BVOP1 / Custom Matrix
Format settings, BVOP : 1
Format settings, QPel : No
Format settings, GMC : No warppoints
Format settings, Matrix : Custom
Codec ID : XVID
Codec ID/Hint : XviD
Duration : 48 min 18 s
Bit rate : 1 822 kb/s
Width : 720 pixels
Height : 400 pixels
Display aspect ratio : 16:9
Frame rate : 25.000 FPS
Color space : YUV
Chroma subsampling : 4:2:0
Bit depth : 8 bits
Scan type : Progressive
Compression mode : Lossy
Bits/(Pixel*Frame) : 0.253
Stream size : 630 MiB (90%)
Writing library : XviD 73
Audio
ID : 1
Format : AC-3
Format/Info : Audio Coding 3
Codec ID : 2000
Duration : 48 min 18 s
Bit rate mode : Constant
Bit rate : 192 kb/s
Channel(s) : 2 channels
Channel positions : Front: L R
Sampling rate : 48.0 kHz
Frame rate : 31.250 FPS (1536 SPF)
Bit depth : 16 bits
Compression mode : Lossy
Stream size : 66.4 MiB (9%)
Alignment : Split accross interleaves
Interleave, duration : 40 ms (1.00 video frame)
Interleave, preload duratio : 500 ms
Service kind : Complete Main

Скриншоты


[cybertorrent.ru].t6617.torrent 
Торрент: Зарегистрирован [ 2019-09-24 17:28 ] · F2400C21F96F088D3907F459B0E5CB21D90E3841

Скачать .torrent

Скачать

42 KB

Статус: проверено
Скачан: 0 раз
Размер: 8,19 GB
terms.php
Показать сообщения:    

Текущее время: 11-Дек 21:54

Часовой пояс: UTC ± 0



Вы не можете начинать темы
Вы не можете отвечать на сообщения
Вы не можете редактировать свои сообщения
Вы не можете удалять свои сообщения
Вы не можете голосовать в опросах
Вы не можете прикреплять файлы к сообщениям
Вы можете скачивать файлы