Статистика раздачи
Размер:  10,15 GB   |    Зарегистрирован:  8 месяцев 10 дней   |    Скачан:  0 раз
DL-List: Нет
Сидов:  65  [  0 KB/s  ]   Личеров:  10  [  0 KB/s  ]  
 
     
 
 

Гость ®

Пол:
Не указан

Галка и Гамаюн
Год выпуска: 2019
Производство: Эпик Медиа
Жанр: драма, криминал
Продолжительность: ~00:50:00 серия
Субтитры: нет
Режиссёр: Андрей Силкин
В ролях: Ирина Пегова, Анна Снаткина, Эдуард Чекмазов, Александр Обласов, Николай Козак, Егор Определеннов, Тимур Определеннов, Алла Подчуфарова, Дмитрий Капранов, Евгения Туркова, Константин Быков, Константин Третьяков, Павел Чернышёв , Евгения Осипова, Раиса Рязанова
Описание: История женской дружбы в лице офицеров уголовного розыска Ирины Галко и Юлии Гамаюн. Женская интуиция, проницательность и эмпатия (в народе – сочувствие) помогают им в расследовании убийств, однако профессиональные навыки парадоксальным образом совершенно не помогают им в личной жизни: Ирина гоняется за мифической любовницей бросившего ее мужа, который на самом деле ушел от нее, пытаясь обезопасить свой подпольный бизнес, а Юля близоруко не разглядела, что ее женатый любовник тире коллега изменял не только жене, но и ей, и теперь ее подозревают в покушении на его убийство. Разгребая бардак в личной жизни, они вынуждены выполнять и свои прямые обязанности – раскрывать дела в родном Ярославле.

Реклама: Нет.
Кинопоиск
Все раздачи сериала
Sample
Качество: HDTVRip 720p - GeneralFilm
Формат: MKV
Видео кодек: H.264
Аудио кодек: AC3
Видео: MPEG4 AVC Video, H264, 16:9, 1280x720, 25 fps, ~3500 kbps, 0.152 bit/pixel
Аудио: AC3 Dolby Digital, 48 kHz, 2/0 (L,R) ch, 192 kbps

MI

General
Unique ID : 184405623763469637983033858162358691487 (0x8ABB3B34A369F8C3844537479E3F269F)
Complete name : D:\Galka i Gamajun.HDTVRip.(720p).GeneralFilm\01.Galka i Gamajun.HDTVRip.(720p).GeneralFilm.mkv
Format : Matroska
Format version : Version 2
File size : 1.28 GiB
Duration : 49 min 47 s
Overall bit rate : 3 694 kb/s
Encoded date : UTC 2019-09-17 09:11:01
Writing application : mkvmerge v7.8.0 ('River Man') 32bit built on Apr 3 2015 12:11:22
Writing library : libebml v1.3.1 + libmatroska v1.4.2
Video
ID : 1
Format : AVC
Format/Info : Advanced Video Codec
Format profile : High@L4.1
Format settings : CABAC / 9 Ref Frames
Format settings, CABAC : Yes
Format settings, ReFrames : 9 frames
Codec ID : V_MPEG4/ISO/AVC
Duration : 49 min 47 s
Bit rate : 3 500 kb/s
Width : 1 280 pixels
Height : 720 pixels
Display aspect ratio : 16:9
Frame rate mode : Constant
Frame rate : 25.000 FPS
Color space : YUV
Chroma subsampling : 4:2:0
Bit depth : 8 bits
Scan type : Progressive
Bits/(Pixel*Frame) : 0.152
Stream size : 1.19 GiB (93%)
Writing library : x264 core 146 r2538 121396c
Encoding settings : cabac=1 / ref=9 / deblock=1:-2:-1 / analyse=0x3:0x113 / me=umh / subme=9 / psy=1 / psy_rd=1.00:0.15 / mixed_ref=1 / me_range=32 / chroma_me=1 / trellis=2 / 8x8dct=1 / cqm=0 / deadzone=21,11 / fast_pskip=0 / chroma_qp_offset=-3 / threads=18 / lookahead_threads=3 / sliced_threads=0 / nr=0 / decimate=1 / interlaced=0 / bluray_compat=0 / constrained_intra=0 / bframes=9 / b_pyramid=2 / b_adapt=2 / b_bias=0 / direct=1 / weightb=1 / open_gop=0 / weightp=2 / keyint=250 / keyint_min=25 / scenecut=40 / intra_refresh=0 / rc_lookahead=40 / rc=2pass / mbtree=0 / bitrate=3500 / ratetol=1.0 / qcomp=0.60 / qpmin=0 / qpmax=69 / qpstep=4 / cplxblur=20.0 / qblur=0.5 / vbv_maxrate=14000 / vbv_bufsize=14000 / nal_hrd=none / filler=0 / ip_ratio=1.40 / pb_ratio=1.30 / aq=2:1.00
Default : Yes
Forced : No
Color range : Limited
Color primaries : BT.709
Transfer characteristics : BT.709
Matrix coefficients : BT.709
Audio
ID : 2
Format : AC-3
Format/Info : Audio Coding 3
Codec ID : A_AC3
Duration : 49 min 47 s
Bit rate mode : Constant
Bit rate : 192 kb/s
Channel(s) : 2 channels
Channel positions : Front: L R
Sampling rate : 48.0 kHz
Frame rate : 31.250 FPS (1536 SPF)
Bit depth : 16 bits
Compression mode : Lossy
Stream size : 68.4 MiB (5%)
Service kind : Complete Main
Default : Yes
Forced : No

Скриншоты


[cybertorrent.ru].t6618.torrent 
Торрент: Зарегистрирован [ 2019-09-24 17:28 ] · 500BC0D076E7ED8C5EFF7D48E3102A8CC9FE61C4

Скачать .torrent

Скачать

52 KB

Статус: проверено
Скачан: 0 раз
Размер: 10,15 GB  ·  Тип торрента
terms.php
Показать сообщения:    

Текущее время: 05-Июн 12:02

Часовой пояс: UTC ± 0



Вы не можете начинать темы
Вы не можете отвечать на сообщения
Вы не можете редактировать свои сообщения
Вы не можете удалять свои сообщения
Вы не можете голосовать в опросах
Вы не можете прикреплять файлы к сообщениям
Вы можете скачивать файлы