Статистика раздачи
Размер:  11,32 GB   |    Зарегистрирован:  2 месяца 19 дней   |    Скачан:  0 раз
Сидов:  38  [  0 KB/s  ]   Личеров:  9  [  0 KB/s  ]  
 
     
 
 

Гость ®

Пол:
Не указан

Русское лекарство
Год выпуска: 2004
Производство: Кинокомпания "ДомФильм"
Жанр: детектив, криминальный фильм
Продолжительность: 18 x ~ 00:50:00
Субтитры: Нет
Режиссёр: Андрей Праченко
В ролях: Александр Наумов, Дмитрий Марьянов, Александр Кульков, Юрий Лагута, Вадим Колганов, Уланбек Баялиев, Иван Рыжиков, Наталия Лесниковская, Дмитрий Ермилов, Виталий Альшанский, Александр Голобородько, Виктор Цекало, Евгений Лунченко, Владимир Ямненко, Галина Опанасенко, Мария Глазкова, Жан Даниэль, Андрей Чернышов, Виктор Сарайкин, Анна Данькова, Любовь Толкалина, Софья Джунь, Евгения Богдан, Людмила Загорская, Нина Нижерадзе, Валерий Афанасьев, Анна Дюкова, Ольга Гришина, Валерия Чайковская, Сергей Векслер, Дмитрий Лаленков, Евгения Гладий, Александр Данилевич, Андрей Аганян, Александр Бессмертный, Александр Печерица, Николай Чиндяйкин, Алексей Гришин, Валерий Шептекита, Михаил Церишенко, Екатерина Праченко, Наталия Васько, Михаил Кукуюк, Ирина Бунина, Владимир Заднепровский, Виктория Корсун, Михаил Игнатов, Богдан Возный, Георгий Дрозд, Владимир Жмакин, Борис Мазур, Виктор Кошель
Описание: Лето 2003 года, Москва. С особой жестокостью, нагло и беспощадно действует загадочная команда ликвидаторов, оставляя за собой кровавый след: убитых и ограбленных предпринимателей, их родных и близких. По ходу расследования муровцы – подполковник Панфилов и молодой оперативник Тимофей Гостюхин – неожиданно наталкиваются на невидимую стену мощного противодействия неизвестной силы. На стороне незримых преступников оказываются продажные политики, противник владеет огромными деньгами и опирается на мощь бандитских бригад. Противостояние становится смертельно опасным...
Реклама: Нет
Сэмпл: http://multi-up.com/1241700
Качество: WEBRip-AVC
Формат: MKV
Видео кодек: H.264
Аудио кодек: AC3
Видео: MPEG-4 (AVC), 720x400, 25 fps, ~ 1600 kbps, ~ 0.22 bit/pixel
Аудио: AC3, 44.1 kHz, 2 ch, 192 Kbps

MI

General
Unique ID : 230389511036620185074861322021516260751 (0xAD5367E3AD2803C3B6F8E8F73A3AB58F)
Complete name : Русское лекарство (01 сер.).mkv
Format : Matroska
Format version : Version 2
File size : 648 MiB
Duration : 50 min 30 s
Overall bit rate : 1 793 kb/s
Encoded date : UTC 2019-08-28 09:43:24
Writing application : mkvmerge v7.8.0 ('River Man') 32bit built on Apr 3 2015 12:11:22
Writing library : libebml v1.3.1 + libmatroska v1.4.2
Video
ID : 1
Format : AVC
Format/Info : Advanced Video Codec
Format profile : High@L3
Format settings : CABAC / 6 Ref Frames
Format settings, CABAC : Yes
Format settings, Reference : 6 frames
Codec ID : V_MPEG4/ISO/AVC
Duration : 50 min 30 s
Bit rate : 1 600 kb/s
Width : 720 pixels
Height : 400 pixels
Display aspect ratio : 16:9
Frame rate mode : Constant
Frame rate : 25.000 FPS
Color space : YUV
Chroma subsampling : 4:2:0
Bit depth : 8 bits
Scan type : Progressive
Bits/(Pixel*Frame) : 0.222
Stream size : 566 MiB (87%)
Writing library : x264 core 157 r2935 545de2f
Encoding settings : cabac=1 / ref=6 / deblock=1:0:0 / analyse=0x3:0x113 / me=umh / subme=8 / psy=1 / psy_rd=1.00:0.00 / mixed_ref=1 / me_range=24 / chroma_me=1 / trellis=1 / 8x8dct=1 / cqm=0 / deadzone=21,11 / fast_pskip=1 / chroma_qp_offset=-2 / threads=4 / lookahead_threads=1 / sliced_threads=0 / nr=0 / decimate=1 / interlaced=0 / bluray_compat=0 / stitchable=1 / constrained_intra=0 / bframes=6 / b_pyramid=2 / b_adapt=1 / b_bias=0 / direct=3 / weightb=1 / open_gop=0 / weightp=2 / keyint=250 / keyint_min=25 / scenecut=40 / intra_refresh=0 / rc_lookahead=40 / rc=2pass / mbtree=1 / bitrate=1600 / ratetol=1.0 / qcomp=0.60 / qpmin=0 / qpmax=69 / qpstep=4 / cplxblur=20.0 / qblur=0.5 / ip_ratio=1.40 / aq=1:1.00
Default : Yes
Forced : No
Audio
ID : 2
Format : AC-3
Format/Info : Audio Coding 3
Commercial name : Dolby Digital
Codec ID : A_AC3
Duration : 50 min 30 s
Bit rate mode : Constant
Bit rate : 192 kb/s
Channel(s) : 2 channels
Channel layout : L R
Sampling rate : 44.1 kHz
Frame rate : 28.711 FPS (1536 SPF)
Bit depth : 16 bits
Compression mode : Lossy
Stream size : 69.4 MiB (11%)
Service kind : Complete Main
Default : Yes
Forced : No

Скриншоты

Предыдущие и альтернативные раздачи
[cybertorrent.ru].t6619.torrent 
Торрент: Зарегистрирован [ 2019-09-24 17:28 ] · 5B450C5EA308BEB14EAB9E202395BB7500E9B740

Скачать .torrent

Скачать

30 KB

Статус: проверено
Скачан: 0 раз
Размер: 11,32 GB
terms.php
Показать сообщения:    

Текущее время: 14-Дек 07:10

Часовой пояс: UTC ± 0



Вы не можете начинать темы
Вы не можете отвечать на сообщения
Вы не можете редактировать свои сообщения
Вы не можете удалять свои сообщения
Вы не можете голосовать в опросах
Вы не можете прикреплять файлы к сообщениям
Вы можете скачивать файлы