Статистика раздачи
Размер:  2,5 GB   |    Зарегистрирован:  2 месяца 14 дней   |    Скачан:  0 раз
Сидов:  249  [  0 KB/s  ]   Личеров:  9  [  0 KB/s  ]  
 
     
 
 

Гость ®

Пол:
Не указан

Селфи на память
Год выпуска: 2019
Производство: Россия, ООО «Леандра Продакшн»
Жанр: Детектив
Продолжительность: 4 x ~ 00:47:00
Субтитры: Отсутствуют
Режиссёр: Петр Забелин
В ролях: Евгений Пронин, Юлия Кокрятская, Пётр Журавлёв, Сергей Кошонин, Анастасия Дюкова, Антон Багров, Ольга Белявская, Игорь Юдин, Максим Гибалов, Игорь Папылев, Руслан Миколенко, Татьяна Тихменёва, Константин Исаев (III), Александр Бобров (II)
Описание: Ник — обычный парень, которому вечно нужны деньги. У его сестры куча проблем, поэтому он соглашается на предложение красотки — украсть ее из клуба, вывести так, чтобы муж и его охранники не заметили. Ник удачно проводит операцию, получает вознаграждение… и думает, что на этом все. Однако Рита выглядит такой трогательной и растерянной. Ей некуда идти, она просит его еще немного ей помочь. Помогая, Ник увлекается — и вот уже они в постели делают селфи на долгую память. Через пару дней девушка исчезает, а Нику приносят разбитый телефон с той самой фотографией.
Автор релиза:
Премьера: 21 сентября 2019 года (ТВЦ)
Реклама: Отсутствует
Сэмпл: http://multi-up.com/1241699
Качество: SATRip
Формат: AVI
Видео кодек: XviD
Аудио кодек: MP3
Видео: XviD, 720x400, ~ 1700 Кбит/с, 0.235 bit/pixel
Аудио: МР3, 2 ch, 192 Кбит/с

MI

Общее
Полное имя : D:\Селфи.на.Память.XviD.2019.SATRip.7turza\01.Селфи.на.Память.7turza.avi
Формат : AVI
Формат/Информация : Audio Video Interleave
Размер файла : 651 Мбайт
Продолжительность : 47 м. 56 с.
Общий поток : 1897 Кбит/сек
Программа кодирования : Lavf58.20.100
Библиотека кодирования : VirtualDub build 35576/release
Видео
Идентификатор : 0
Формат : MPEG-4 Visual
Профиль формата : Advanced Simple@L5
Настройки формата : BVOP1
Параметр BVOP формата : 1
Параметр QPel формата : Нет
Параметр GMC формата : Без точки перехода
Параметр матрицы формата : Default (H.263)
Идентификатор кодека : XVID
Идентификатор кодека/Подсказка : XviD
Продолжительность : 47 м. 56 с.
Битрейт : 1693 Кбит/сек
Ширина : 720 пикселей
Высота : 400 пикселей
Соотношение сторон : 1,85:1
Частота кадров : 25,000 кадров/сек
Цветовое пространство : YUV
Субдискретизация насыщенности : 4:2:0
Битовая глубина : 8 бит
Тип развёртки : Прогрессивная
Бит/(Пиксели*Кадры) : 0.235
Размер потока : 580 Мбайт (89%)
Библиотека кодирования : XviD 67
Аудио
Идентификатор : 1
Формат : MPEG Audio
Версия формата : Version 1
Профиль формата : Layer 3
Настройки формата : Joint stereo / MS Stereo
Идентификатор кодека : 55
Идентификатор кодека/Подсказка : MP3
Продолжительность : 47 м. 56 с.
Вид битрейта : Постоянный
Битрейт : 192 Кбит/сек
Каналы : 2 канала
Частота : 48,0 КГц
Размер потока : 65,8 Мбайт (10%)
Выравнивание : Соединение по промежуткам
Продолжительность промежутка : 24 мс. (0,60 видеокадр)
Время предзагрузки промежутка : 504 мс.
Библиотека кодирования : LAME

Скриншоты

Предыдущие и альтернативные раздачи
[cybertorrent.ru].t6620.torrent 
Торрент: Зарегистрирован [ 2019-09-24 17:28 ] · 101ABD146726B44E52A9776E1CF88C424DC500BF

Скачать .torrent

Скачать

13 KB

Статус: проверено
Скачан: 0 раз
Размер: 2,5 GB
terms.php
Показать сообщения:    

Текущее время: 09-Дек 15:00

Часовой пояс: UTC ± 0



Вы не можете начинать темы
Вы не можете отвечать на сообщения
Вы не можете редактировать свои сообщения
Вы не можете удалять свои сообщения
Вы не можете голосовать в опросах
Вы не можете прикреплять файлы к сообщениям
Вы можете скачивать файлы