Статистика раздачи
Размер:  5,04 GB   |    Зарегистрирован:  2 месяца 21 день   |    Скачан:  0 раз
Сидов:  42  [  0 KB/s  ]   Личеров:  9  [  0 KB/s  ]  
 
     
 
 

Гость ®

Пол:
Не указан

Волшебник
Год выпуска: 2017
Производство: MAGIC FACTORY, ТМ Продакшн
Жанр: детектив, комедия
Продолжительность: ~00:52:00 серия
Субтитры: нет
Режиссёр: Михаил Хлебородов
В ролях: Юрий Чурсин, Анна Старшенбаум, Дмитрий Хрусталёв, Александр Голубков, Юлианна Караулова, Дмитрий Ефремов, Наталья Земцова, Вера Шпак, Виктор Цекало, Александр Ефимов, Даниил Эйдлин, Дарья Сивова, Аполлинария Муравьёва, Александра Богданова
Описание: Два друга Андрей Гончаров и Алексей Девятов придумали прибыльный бизнес. Первый изображает из себя экстрасенса Светозара, а второй собирает о клиентах информацию. Светозар разыскивает без вести пропавших, возвращает блудливых мужей в семью, притягивает удачу и становится очень популярной фигурой в Москве. Но когда на кону жизнь любимого человека, ему приходится сотворить настоящее чудо.

Реклама: Нет.
Кинопоиск
Все раздачи сериала
Sample
Качество: HDTVRip - Files-x
Формат: AVI
Видео кодек: XviD
Аудио кодек: AC3
Видео: 720x400 (1.80:1), 25 fps, XviD ~1600 kbps avg, 0.222 bit/pixel
Аудио: 48.0 kHz, AC3 Dolby Digital, 2/0 (L,R) ch, ~ 192 kbps

MI

General
Complete name : D:\Волшебник.2019.HDTVRip.Files-x\01. Волшебник.2019.HDTVRip.Files-x.avi
Format : AVI
Format/Info : Audio Video Interleave
File size : 668 MiB
Duration : 51 min 49 s
Overall bit rate : 1 802 kb/s
Writing application : VirtualDubMod 1.5.10.3 | www.virtualdub-fr.org || (build 2550/release)
Writing library : VirtualDubMod build 2550/release
Video
ID : 0
Format : MPEG-4 Visual
Format profile : Advanced Simple@L5
Format settings : BVOP1 / Custom Matrix
Format settings, BVOP : 1
Format settings, QPel : No
Format settings, GMC : No warppoints
Format settings, Matrix : Custom
Codec ID : XVID
Codec ID/Hint : XviD
Duration : 51 min 49 s
Bit rate : 1 600 kb/s
Width : 720 pixels
Height : 400 pixels
Display aspect ratio : 16:9
Frame rate : 25.000 FPS
Color space : YUV
Chroma subsampling : 4:2:0
Bit depth : 8 bits
Scan type : Progressive
Compression mode : Lossy
Bits/(Pixel*Frame) : 0.222
Stream size : 593 MiB (89%)
Writing library : XviD 73
Audio
ID : 1
Format : AC-3
Format/Info : Audio Coding 3
Codec ID : 2000
Duration : 51 min 49 s
Bit rate mode : Constant
Bit rate : 192 kb/s
Channel(s) : 2 channels
Channel positions : Front: L R
Sampling rate : 48.0 kHz
Frame rate : 31.250 FPS (1536 SPF)
Bit depth : 16 bits
Compression mode : Lossy
Stream size : 71.2 MiB (11%)
Alignment : Split accross interleaves
Interleave, duration : 40 ms (1.00 video frame)
Interleave, preload duratio : 500 ms
Service kind : Complete Main

Скриншоты


[cybertorrent.ru].t6622.torrent 
Торрент: Зарегистрирован [ 2019-09-24 17:28 ] · 97FD06B7747DAFBA1BEB224F10A7F829CAAAB9F4

Скачать .torrent

Скачать

26 KB

Статус: проверено
Скачан: 0 раз
Размер: 5,04 GB
terms.php
Показать сообщения:    

Текущее время: 16-Дек 00:49

Часовой пояс: UTC ± 0



Вы не можете начинать темы
Вы не можете отвечать на сообщения
Вы не можете редактировать свои сообщения
Вы не можете удалять свои сообщения
Вы не можете голосовать в опросах
Вы не можете прикреплять файлы к сообщениям
Вы можете скачивать файлы