Статистика раздачи
Размер:  7,92 GB   |    Зарегистрирован:  4 месяца 2 дня   |    Скачан:  0 раз
Сидов:  4  [  0 KB/s  ]  
 
     
 
 

Гость ®

Пол:
Не указан

Право на защиту
Год выпуска: 2002
Производство: МакДос
Жанр: драма, криминальный фильм
Продолжительность: 12 x ~ 00:47:00
Субтитры: Нет
Режиссёр: Вячеслав Криштофович
В ролях: Вера Воронкова, Виктор Раков, Сергей Чонишвили, Борис Галкин, Андрей Смирнов, Лариса Руснак, Олег Масленников, Елена Прудникова, Лариса Удовиченко, Владимир Горянский, Татьяна Кравченко, Любовь Кубьюк, Андрей Жаховский, Кристина Синельник, Тамара Плашенко, Евгений Морозов (II), Олег Треповский, Валерий Зайцев, Ирина Бродская, Леся Чеверноженко, Анатолий Матешко, Евгений Малуха, Михаил Барныч, Ирина Горшкова, Сергей Родюшкин, Геннадий Яковлев, Татьяна Захарова, Анатолий Дяченко, Татьяна Шевченко, Вия Кальва, Елена Ластовецкая, Ксения Николаева, Николай Бабенко, София Барда, Любовь Барда, Александр Игнатуша, Ярослав Ластовецкий, Дмитрий Лиждвой, Алексей Зубков, Ольга Когут, Тамара Морозова, Олег Примогенов, Олеся Власова, Александр Агеенков, Станислав Боклан, Дмитрий Линартович, Григорий Герасимчук, Герман Крамаренко, Юрий Комиссаров (II), Виталий Новиков, Софья Письман, Валентина Ильяшенко, Лариса Любякина, Валерий Панарин, Валентин Шестопалов, Агафья Болотова, Олеся Мерега, Ольга Реус-Петренко, Людмила Кузьмина, Наталья Озирская, Александр Герелес, Наталья Некрич, Анна Киш, Олег Коваленко (III), Алексей Кучеренко, Тимофей Разуменко, Анастасия Бунина, Сергей Сипливый, Людмила Боева, Борис Мазур
Описание: Пять талантливых предприимчивых юристов, которые могли бы сделать успешную традиционную адвокатскую карьеру, решают объединить усилия и создать круглосуточную бесплатную юридическую службу 111, такую же неотложную и доступную, как 03, 02 или 01, куда могли бы обратиться люди, растерявшиеся перед сложностью жизненных обстоятельств. Бюро быстро набирает популярность, что вызывает зависть коллег и желание мэра города использовать команду талантливых адвокатов в своей будущей избирательной компании. Но предложение мэра отвергается, и тогда в борьбу против адвокатского бюро включается «административный ресурс»…
Реклама: Нет
Сэмпл: http://multi-up.com/1241850
Качество: WEBRip-AVC
Формат: MKV
Видео кодек: H.264
Аудио кодек: AC3
Видео: MPEG-4 (AVC), 700x572@764x572, 25 fps, ~ 1800 kbps, ~ 0.18 bit/pixel
Аудио: AC3, 44.1 kHz, 2 ch, 192 Kbps

MI

General
Unique ID : 186559403589029666068374132470902562167 (0x8C5A08BFE23D11A099EDF3436AE61D77)
Complete name : Право на защиту (01 сер.).mkv
Format : Matroska
Format version : Version 2
File size : 682 MiB
Duration : 48 min 14 s
Overall bit rate : 1 977 kb/s
Encoded date : UTC 2019-09-21 11:58:54
Writing application : mkvmerge v7.8.0 ('River Man') 32bit built on Apr 3 2015 12:11:22
Writing library : libebml v1.3.1 + libmatroska v1.4.2
Video
ID : 1
Format : AVC
Format/Info : Advanced Video Codec
Format profile : High@L3.1
Format settings : CABAC / 6 Ref Frames
Format settings, CABAC : Yes
Format settings, Reference : 6 frames
Codec ID : V_MPEG4/ISO/AVC
Duration : 48 min 14 s
Bit rate : 1 800 kb/s
Width : 700 pixels
Height : 572 pixels
Display aspect ratio : 4:3
Frame rate mode : Constant
Frame rate : 25.000 FPS
Color space : YUV
Chroma subsampling : 4:2:0
Bit depth : 8 bits
Scan type : Progressive
Bits/(Pixel*Frame) : 0.180
Stream size : 602 MiB (88%)
Writing library : x264 core 157 r2935 545de2f
Encoding settings : cabac=1 / ref=6 / deblock=1:0:0 / analyse=0x3:0x113 / me=umh / subme=8 / psy=1 / psy_rd=1.00:0.00 / mixed_ref=1 / me_range=24 / chroma_me=1 / trellis=1 / 8x8dct=1 / cqm=0 / deadzone=21,11 / fast_pskip=1 / chroma_qp_offset=-2 / threads=4 / lookahead_threads=1 / sliced_threads=0 / nr=0 / decimate=1 / interlaced=0 / bluray_compat=0 / stitchable=1 / constrained_intra=0 / bframes=6 / b_pyramid=2 / b_adapt=1 / b_bias=0 / direct=3 / weightb=1 / open_gop=0 / weightp=2 / keyint=250 / keyint_min=25 / scenecut=40 / intra_refresh=0 / rc_lookahead=40 / rc=2pass / mbtree=1 / bitrate=1800 / ratetol=1.0 / qcomp=0.60 / qpmin=0 / qpmax=69 / qpstep=4 / cplxblur=20.0 / qblur=0.5 / ip_ratio=1.40 / aq=1:1.00
Default : Yes
Forced : No
Audio
ID : 2
Format : AC-3
Format/Info : Audio Coding 3
Commercial name : Dolby Digital
Codec ID : A_AC3
Duration : 48 min 14 s
Bit rate mode : Constant
Bit rate : 192 kb/s
Channel(s) : 2 channels
Channel layout : L R
Sampling rate : 44.1 kHz
Frame rate : 28.711 FPS (1536 SPF)
Bit depth : 16 bits
Compression mode : Lossy
Stream size : 66.3 MiB (10%)
Service kind : Complete Main
Default : Yes
Forced : No

Скриншоты

Предыдущие и альтернативные раздачи
[cybertorrent.ru].t6626.torrent 
Торрент: Зарегистрирован [ 2019-09-24 17:28 ] · 3A85E9831E7848896421919D7DAD5B164AB95E8E

Скачать .torrent

Скачать

21 KB

Статус: проверено
Скачан: 0 раз
Размер: 7,92 GB
terms.php
Показать сообщения:    

Текущее время: 27-Янв 15:35

Часовой пояс: UTC ± 0



Вы не можете начинать темы
Вы не можете отвечать на сообщения
Вы не можете редактировать свои сообщения
Вы не можете удалять свои сообщения
Вы не можете голосовать в опросах
Вы не можете прикреплять файлы к сообщениям
Вы можете скачивать файлы