Статистика раздачи
Размер:  1,17 GB   |    Зарегистрирован:  2 месяца 21 день   |    Скачан:  0 раз
Сидов:  34  [  0 KB/s  ]   Личеров:  3  [  0 KB/s  ]  
 
     
 
 

Гость ®

Пол:
Не указан

Знахарь- Год выпуска: 2019
Производство: Про-синема Фильм продакшн
Жанр: Мелодрама
Продолжительность: 00:50:37
Субтитры: нет-Режиссёр: Ярослав Мочалов-В ролях: Даниил Страхов, Екатерина Кузнецова (II), Николай Иванов (II), Александра Мареева, Леонид Громов, Юрий Ицков, Валерий Гришко, Павел Чинарёв, Светлана Смирнова-Марцинкевич, Андрей Ташков, Владимир Матвеев, Сергей Колос, Юлия Марченко, Алла Еминцева, Хельга Филиппова, Анна Дулова, Максим Ханжов, Артём Карасев, Александр Кононец, Мария Жиганова, Екатерина Суворова-Описание: Молодой и талантливый нейрохирург Павел Андреев возвращается в Петербург после учебы за границей и устраивается работать в отделение больницы, начальник которого — его бывший учитель. Не все в больнице рады внезапному появлению Павла — его главным конкурентом становится бывший однокурсник Сергей Стрельников. Вне работы жизнь главного героя также непростая: его начальник Николай Семенов просит его провести сложную операцию и удалить запущенную опухоль, а параллельно у молодого врача начинается роман с дочерью Семенова.
Всю жизнь Андреева переворачивает несчастный случай, в результате которого он теряет память, но не способность помогать людям.- -Качество: SATRip
Формат: AVI
Видео кодек: XviD
Аудио кодек: MP3
Видео: 720x400 (16:9), 25.000 fps, XviD, 1456 Kbps, 0.20 bit/pixel
Аудио: 48 kHz, MP3, 2 ch, 192 Kbps
Реклама: Нет

Релиз

Рип: 25Kuzmich
Без Рекламы

MI

General
Complete name : Downloads\Znahar.2019.XviD.SATRip.25Kuzmich\Znahar.e01.XviD.SATRip.25Kuzmich.avi
Format : AVI
Format/Info : Audio Video Interleave
File size : 600 MiB
Duration : 50mn 37s
Overall bit rate : 1 657 Kbps
Writing application : VirtualDubMod 1.5.10.3 | www.virtualdub-fr.org || (build 2550/release)
Writing library : VirtualDubMod build 2550/release
Video #0
ID : 0
Format : MPEG-4 Visual
Format profile : Advanced Simple@L5
Format settings, BVOP : 1
Format settings, QPel : No
Format settings, GMC : No warppoints
Format settings, Matrix : Default (MPEG)
Codec ID : XVID
Codec ID/Hint : XviD
Duration : 50mn 37s
Bit rate : 1 456 Kbps
Width : 720 pixels
Height : 400 pixels
Display aspect ratio : 16:9
Frame rate : 25.000 fps
Color space : YUV
Chroma subsampling : 4:2:0
Bit depth : 8 bits
Scan type : Progressive
Compression mode : Lossy
Bits/(Pixel*Frame) : 0.202
Stream size : 527 MiB (88%)
Writing library : XviD 73
Audio #1
ID : 1
Format : MPEG Audio
Format version : Version 1
Format profile : Layer 3
Mode : Joint stereo
Codec ID : 55
Codec ID/Hint : MP3
Duration : 50mn 37s
Bit rate mode : Constant
Bit rate : 192 Kbps
Channel(s) : 2 channels
Sampling rate : 48.0 KHz
Compression mode : Lossy
Stream size : 69.5 MiB (12%)
Alignment : Aligned on interleaves
Interleave, duration : 40 ms (1.00 video frame)
Interleave, preload duration : 504 ms
Writing library : LAME3.99r
Encoding settings : -m j -V 4 -q 2 -lowpass 18.6 -b 192

Скриншоты

Внимание! Раздача ведётся путём добавления новых серий:

(1) остановить скачивание,
(2) удалить старый торрент у себя из клиента (старые серии удалять не надо),
(3) скачать новый торрент и запустить его у себя в клиенте вместо старого, при этом указать клиенту путь в старую папку куда и должно происходить скачивание новых серий.
Ваш клиент при этом должен произвести хеширование (проверку) старой папки (если не производит сам - помогите ему сделать это), и будет докачивать только те серии которых у вас ещё нет. Старые серии при этом не удаляются, а продолжают раздаваться!
Eсли вы уже удалили старые серии, то предотвратить повторную закачку старых серий можно, отжав галочку в соответсвующих местах при запуске нового торрента. По возможности, желательно не удалять старые серии как можно дольше чтобы релизёр не столько продолжал раздавать старые серии, а смог сконцентрироваться на новых
.
Предыдущие и альтернативные раздачи
[cybertorrent.ru].t6631.torrent 
Торрент: Зарегистрирован [ 2019-09-24 17:28 ] · 9633B4DEC85A19F74128B80BAAB603EABAB478F3

Скачать .torrent

Скачать

12 KB

Статус: проверено
Скачан: 0 раз
Размер: 1,17 GB
terms.php
Показать сообщения:    

Текущее время: 15-Дек 23:03

Часовой пояс: UTC ± 0



Вы не можете начинать темы
Вы не можете отвечать на сообщения
Вы не можете редактировать свои сообщения
Вы не можете удалять свои сообщения
Вы не можете голосовать в опросах
Вы не можете прикреплять файлы к сообщениям
Вы можете скачивать файлы