Статистика раздачи
Размер:  6,6 GB   |    Зарегистрирован:  2 месяца 14 дней   |    Скачан:  0 раз

Полного источника не было: Никогда

 
     
 
 

Гость ®

Пол:
Не указан

Медовая любовь
Год выпуска: 2011
Жанр: драма
Продолжительность: 2 х 01:28:00
субтитры: отсутствуют-Режиссёр: Александр Итыгилов мл.
В главной роли: Елена Шилова, Юрий Назаров, Мария Козакова, Александр Ратников, Денис Косяков, Ян Цапник, Леонид Громов, Антон Сладкевич, Юрий Яковлев-Суханов, Ирина Мельник-Описание: Любу Кремневу воспитывал дед Родион, человек прямой и принципиальный, потомственный пчеловод. Неудивительно, что Люба и характер, и профессию от деда унаследовала. Живут они в патриархальном селе, но и здесь на фоне современных нравов Люба выглядит старомодно. Она точно не модница, как ее подруга Лера, не умеет сражаться за внимание парней, да и в семейном деле — продаже меда — ее справедливость отпугивает барыг-перекупщиков. Словом, Люба — милая и честная девушка, но как будто из другого времени.
После службы в армии в село возвращается Виктор — красавец и, кажется, повеса. Бесхитростная Люба относится к нему с симпатией, а ее подруга Лера откровенно заигрывает с парнем и добивается взаимности. Но все первые чувства и первые разочарования внезапно прерываются трагедией — ночью кто-то обкрадывает пасеку деда Родиона, а самого старика утром Люба находит мертвым…- -Качество: WEBRip 1080p
Формат: MP4
Видео кодек: AVC
Аудио кодек: AAC
Видео: 1920x1080 , 25 fps, ~5120 kbps avg, 0.099 bit/pixel
Аудио: 48 kHz, AAC, 2ch, ~256 kbps avg

Список серий

01. Первая серия
02. Вторая серия
03. Третья серия
04. Четвертая серия

MediaInfo

Общее
Полное имя : D:\Медовая любовь.2011.WEBRip 1080p\01. Медовая любовь.mp4
Формат : MPEG-4
Профиль формата : Base Media
Идентификатор кодека : isom (isom/iso2/avc1/mp41)
Размер файла : 3,30 Гбайт
Продолжительность : 1 ч. 28 м.
Общий поток : 5365 Кбит/сек
Программа кодирования : Lavf55.33.100
Видео
Идентификатор : 1
Формат : AVC
Формат/Информация : Advanced Video Codec
Профиль формата : High@L4
Настройки формата : CABAC / 4 Ref Frames
Параметр CABAC формата : Да
Параметр RefFrames формата : 4 кадра
Идентификатор кодека : avc1
Идентификатор кодека/Информация : Advanced Video Coding
Продолжительность : 1 ч. 28 м.
Битрейт : 5120 Кбит/сек
Ширина : 1920 пикселей
Высота : 1080 пикселей
Соотношение сторон : 16:9
Режим частоты кадров : Постоянный
Частота кадров : 25,000 кадров/сек
Цветовое пространство : YUV
Субдискретизация насыщенности : 4:2:0
Битовая глубина : 8 бит
Тип развёртки : Прогрессивная
Бит/(Пиксели*Кадры) : 0.099
Размер потока : 3,14 Гбайт (95%)
Библиотека кодирования : x264 core 142
Настройки программы : cabac=1 / ref=3 / deblock=1:0:0 / analyse=0x3:0x113 / me=hex / subme=7 / psy=1 / psy_rd=1.00:0.00 / mixed_ref=1 / me_range=16 / chroma_me=1 / trellis=1 / 8x8dct=1 / cqm=0 / deadzone=21,11 / fast_pskip=1 / chroma_qp_offset=-2 / threads=108 / lookahead_threads=8 / sliced_threads=0 / nr=0 / decimate=1 / interlaced=0 / bluray_compat=0 / constrained_intra=0 / bframes=6 / b_pyramid=2 / b_adapt=1 / b_bias=0 / direct=1 / weightb=1 / open_gop=0 / weightp=2 / keyint=50 / keyint_min=26 / scenecut=0 / intra_refresh=0 / rc_lookahead=40 / rc=2pass / mbtree=1 / bitrate=5120 / ratetol=1.0 / qcomp=0.60 / qpmin=0 / qpmax=69 / qpstep=4 / cplxblur=20.0 / qblur=0.5 / vbv_maxrate=7680 / vbv_bufsize=20480 / nal_hrd=none / filler=0 / ip_ratio=1.40 / aq=1:1.00
Дата пометки : UTC 2017-08-23 15:15:13
Аудио
Идентификатор : 2
Формат : AAC
Формат/Информация : Advanced Audio Codec
Профиль формата : LC
Идентификатор кодека : mp4a-40-2
Продолжительность : 1 ч. 28 м.
Duration_LastFrame : 23 мс.
Вид битрейта : Постоянный
Битрейт : 256 Кбит/сек
Каналы : 2 канала
Расположение каналов : Front: L R
Частота : 48,0 КГц
Частота кадров : 46,875 кадров/сек (1024 SPF)
Метод сжатия : С потерями
Размер потока : 161 Мбайт (5%)
Язык : English
Default : Да
AlternateGroup/String : 1
Дата пометки : UTC 2017-08-23 15:15:13
Ссылка на предыдущие и альтернативные раздачи
[cybertorrent.ru].t6635.torrent 
Торрент: Зарегистрирован [ 2019-09-24 17:28 ] · ABF3084EFBAB1FC3713CC7E94165062CABBB09FF

Скачать .torrent

Скачать

17 KB

Статус: проверено
Скачан: 0 раз
Размер: 6,6 GB
terms.php
Показать сообщения:    

Текущее время: 09-Дек 16:20

Часовой пояс: UTC ± 0



Вы не можете начинать темы
Вы не можете отвечать на сообщения
Вы не можете редактировать свои сообщения
Вы не можете удалять свои сообщения
Вы не можете голосовать в опросах
Вы не можете прикреплять файлы к сообщениям
Вы можете скачивать файлы