Статистика раздачи
Размер:  1,46 GB   |    Зарегистрирован:  2 месяца 15 дней   |    Скачан:  0 раз

Полного источника не было: Никогда

 
     
 
 

Гость ®

Пол:
Не указан

Когда холмы еще покрыты лунным светом / Wenn süß das Mondlicht auf den Hügeln schläft
Страна: Германия (ФРГ)
Жанр: драма, комедия
Год выпуска: 1969
Продолжительность: 01:35:26
Перевод: Одноголосый закадровый Семён Ващенко
Субтитры: русские (Рубикон), английские, немецкие
Оригинальная аудиодорожка: немецкий
Режиссер: Вольфганг Либенайнер / Wolfgang Liebeneiner
В ролях: Арчибальд Эсер, Ирина фон Бентхейм, Вернер Хинц, Луйтгард Им, Вернер Брунс, Диана Кёрнер, Рольф Цахер, Сузанна Улен, Юрген Ленцч, Ильза Фюрстенберг, Герд Ломайер, Рихард Халлер

Описание: Продолжение фильма "В семь утра мир всё ещё в порядке". Начались долгожданные каникулы, и Гейлорд мечтает, что он отправится в путешествие со своими родителями и новорожденной сестричкой Амандой. Но плохие новости ждут семью: после серьезной аварии в Мумбаи брат матери оказывается в тяжелом состоянии в больнице, и на время лечения двое племянников и племянница отправляются жить в семью Гейлорд. Ясно, что о путешествии больше не может идти и речи.
Но среди приехавших родственников оказывается маленькая девочка – сверстница Гейлорда, которая по характеру ничем не отличается от вездесущего и шаловливого мальчонки. Завязывается дружба. Кроме того, из тюрьмы освобождается подросток – Берт Фоггерти, который изранил Гейлорда. Родители боятся мести.

Доп. информация: Работа с аудио - Родион Камонов, сведение звука, синхронизация субтитров - serega.

Кинопоиск - IMDb
Sample
Качество видео: HDRip
Формат видео: AVI
Видео: 720x432 (1.67:1), 24.000 fps, XviD build 73 ~1795 kbps avg, 0.24 bit/pixel
Аудио #1: Russian (AC3, 2 ch, 192 kbps, 16 bits, 48.0 KHz) - VO
Аудио #2: German (AC3, 2 ch, 192 kbps, 16 bits, 48.0 KHz) - оригинал
Формат субтитров: softsub (SRT)

MediaInfo

General
Complete name : D:\Wenn suss das Mondlicht auf den Hugeln schlaft 1969 HDRip\Wenn suss das Mondlicht auf den Hugeln schlaft 1969 HDRip.avi
Format : AVI
Format/Info : Audio Video Interleave
File size : 1.46 GiB
Duration : 1 h 35 min
Overall bit rate : 2 195 kb/s
Writing application : VirtualDubMod 1.5.10.3 | www.virtualdub-fr.org || (build 2550/release)
Writing library : VirtualDubMod build 2550/release
Video
ID : 0
Format : MPEG-4 Visual
Format profile : Advanced Simple@L5
Format settings : BVOP1
Format settings, BVOP : 1
Format settings, QPel : No
Format settings, GMC : No warppoints
Format settings, Matrix : Default (MPEG)
Codec ID : XVID
Codec ID/Hint : XviD
Duration : 1 h 35 min
Bit rate : 1 797 kb/s
Width : 720 pixels
Height : 432 pixels
Display aspect ratio : 5:3
Frame rate : 24.000 FPS
Color space : YUV
Chroma subsampling : 4:2:0
Bit depth : 8 bits
Scan type : Progressive
Compression mode : Lossy
Bits/(Pixel*Frame) : 0.241
Stream size : 1.20 GiB (82%)
Writing library : XviD 73
Audio #1
ID : 1
Format : AC-3
Format/Info : Audio Coding 3
Codec ID : 2000
Duration : 1 h 35 min
Bit rate mode : Constant
Bit rate : 192 kb/s
Channel(s) : 2 channels
Channel positions : Front: L R
Sampling rate : 48.0 kHz
Frame rate : 31.250 FPS (1536 SPF)
Bit depth : 16 bits
Compression mode : Lossy
Stream size : 131 MiB (9%)
Alignment : Split accross interleaves
Interleave, duration : 42 ms (1.00 video frame)
Interleave, preload duratio : 500 ms
Service kind : Complete Main
Audio #2
ID : 2
Format : AC-3
Format/Info : Audio Coding 3
Codec ID : 2000
Duration : 1 h 35 min
Bit rate mode : Constant
Bit rate : 192 kb/s
Channel(s) : 2 channels
Channel positions : Front: L R
Sampling rate : 48.0 kHz
Frame rate : 31.250 FPS (1536 SPF)
Bit depth : 16 bits
Compression mode : Lossy
Stream size : 131 MiB (9%)
Alignment : Split accross interleaves
Interleave, duration : 42 ms (1.00 video frame)
Interleave, preload duratio : 500 ms
Service kind : Complete Main

Скриншоты



[cybertorrent.ru].t6636.torrent 
Торрент: Зарегистрирован [ 2019-09-24 17:28 ] · 3A5AC0B5FB3FBCC732FD35918D1ABF0B1131E200

Скачать .torrent

Скачать

15 KB

Статус: проверено
Скачан: 0 раз
Размер: 1,46 GB
terms.php
Показать сообщения:    

Текущее время: 09-Дек 23:48

Часовой пояс: UTC ± 0



Вы не можете начинать темы
Вы не можете отвечать на сообщения
Вы не можете редактировать свои сообщения
Вы не можете удалять свои сообщения
Вы не можете голосовать в опросах
Вы не можете прикреплять файлы к сообщениям
Вы можете скачивать файлы