Статистика раздачи
Размер:  1,37 GB   |    Зарегистрирован:  9 месяцев 5 дней   |    Скачан:  0 раз

Полного источника не было: Никогда

 
   
 
 

Ласточка ®

Пол:
Не указан
Стаж:
9 месяцев 6 дней
Сообщений:
453

Приключения Кроша
Год выпуска: 1961
Жанр: Семейный; приключения
Продолжительность: 01:20:31
Режиссер: Генрих Оганисян
В ролях: Николай Томашевский, Нина Шатерникова, Владимир Кашпур, Андрей Юренев, Павел Суханов, Савелий Крамаров, Лариса Лужина, Никита Михалков, Николай Парфенов
Описание: Ученики девятого класса одной из московских школ проходят летнюю практику на крупной автобазе. Быстро освоившись с организацией незамысловатого труда ремонтника, ребята выбирают в своем дружном коллективе снабженца — и каждый находит практику в чем-то полезной. Только Сережа Крашенинников (Крош) со своими гуманитарными способностями и полным отсутствием интереса к технике, явно выбивается из дружного коллектива. Но происходит ЧП: со склада пропадает новенький амортизатор, а затем и машина. И наблюдательный Крош берет на себя функции детектива…

Качество: DVDRip
Формат: AVI
Видео кодек: DivX
Аудио кодек: AC3
Видео: 720x544; 25fps; 2230 Kbps
Аудио: 48 Hz; 192 Kbps; ATSC/A-52 Dolby AC3

MediaInfo

General
Complete name : E:\prikluchenija_Krosha.avi
Format : AVI
Format/Info : Audio Video Interleave
File size : 1.37 GiB
Duration : 1h 20mn
Overall bit rate : 2 429 Kbps
Writing application : VirtualDubMod 1.5.4.1 (build 2178/release)
Writing library : VirtualDubMod build 2178/release
Video
ID : 0
Format : MPEG-4 Visual
Format settings, BVOP : 1
Format settings, QPel : No
Format settings, GMC : No warppoints
Format settings, Matrix : Default (H.263)
Muxing mode : Packed bitstream
Codec ID : DX50
Codec ID/Hint : DivX 5
Duration : 1h 20mn
Bit rate : 2 230 Kbps
Width : 720 pixels
Height : 544 pixels
Display aspect ratio : 4:3
Frame rate : 25.000 fps
Color space : YUV
Chroma subsampling : 4:2:0
Bit depth : 8 bits
Scan type : Progressive
Compression mode : Lossy
Bits/(Pixel*Frame) : 0.228
Stream size : 1.25 GiB (92%)
Writing library : DivX 6.6.1
Audio
ID : 1
Format : AC-3
Format/Info : Audio Coding 3
Mode extension : CM (complete main)
Format settings, Endianness : Big
Codec ID : 2000
Duration : 1h 20mn
Bit rate mode : Constant
Bit rate : 192 Kbps
Channel count : 2 channels
Channel positions : Front: L R
Sampling rate : 48.0 KHz
Bit depth : 16 bits
Compression mode : Lossy
Stream size : 111 MiB (8%)
Alignment : Split accross interleaves
Interleave, duration : 96 ms (2.40 video frames)
Interleave, preload duration : 96 ms
Language : Russian

Скриншоты:


[cybertorrent.ru].t665.torrent 
Торрент: Зарегистрирован [ 2018-02-15 22:25 ] · 871DC4B368EC860EF5ED4BA33DEE1E3E9A6CFB55

Скачать .torrent

Скачать

14 KB

Статус: проверено
Скачан: 0 раз
Размер: 1,37 GB
Профиль [ЛС]
Показать сообщения:    

Текущее время: 21-Ноя 13:51

Часовой пояс: UTC ± 0



Вы не можете начинать темы
Вы не можете отвечать на сообщения
Вы не можете редактировать свои сообщения
Вы не можете удалять свои сообщения
Вы не можете голосовать в опросах
Вы не можете прикреплять файлы к сообщениям
Вы можете скачивать файлы
Torrents24.ru открытый BitTorrent Torrents24.pl открытый BitTorrent CyberTorrent.ru открытый BitTorrent BtList.ru рейтинг BitTorrent трекеров Яндекс.Метрика