Статистика раздачи
Размер:  1,37 GB   |    Зарегистрирован:  3 месяца 8 дней   |    Скачан:  0 раз

Полного источника не было: Никогда

 
   
 
 

lopster ®

Пол:
Не указан
Стаж:
3 месяца 8 дней
Сообщений:
612

Когда не хватает любви
Год выпуска: 2008
Жанр: Детектив, мелодрама
Продолжительность: 01:24:41
Режиссер: Андрей Морозов
В ролях: Александр Песков, Екатерина Семенова, Зоя Буряк, Анжелика Вольская (Вострикова), Александр Голобородько, Мария Добржинская, Екатерина Зинченко, Сергей Ларин, Александр Рапопорт, Екатерина Травова
Описание: Эта запутанная история начинается с того, что главную героиню Тамару бросает ее молодой любовник... А потом несчастья сыпятся на женщину, как из рога изобилия: умирает любимая бабушка, в это же время в Тамариной квартире убивают ее соседку Ирину, потом в больнице оказывается лучшая подруга Тамары — Галя — ее ударили по голове, когда она вышла погулять с собакой... А саму Тамару запирают на ее же даче непрошенные гости — молодые люди с явно криминальными замашками! Клубок жутковатых совпадений Тамаре помогает распутать Ярослав, бывший Тамарин одноклассник, которого она случайно встречает в магазине... Он сопоставив все факты понимает, что убить хотят Тамару, и она лишь чудом каждый раз спасается от смерти! Но кто и почему хочет отправить на тот свет прелестную женщину и законную наследницу состояния своей бабушки?..
Все раздачи фильма: Когда не хватает любви
Качество: DVDRip
Формат: AVI
Видео кодек: XviD
Аудио кодек: AC3
Видео: 704x432 (1.63:1), 25 fps, XviD build 47 ~2110 kbps avg, 0.28 bit/pixel
Аудио: 48 kHz, AC3 Dolby Digital, 2/0 (L,R) ch, ~192.00 kbps avg

MI

Код:Общее
Полное имя : C:\otkat\Видео\Когда не хватает любви\Kogda.ne.hvataet.lubvi.2008.XviD.DVDRip.[torrents.ru].avi
Формат : AVI
Формат/Информация : Audio Video Interleave
Размер файла : 1,37 Гбайт
Продолжительность : 1 ч. 24 м.
Общий поток : 2309 Кбит/сек
Программа кодирования : VirtualDubMod 1.5.4.1 (build 2178/release)
Библиотека кодирования : VirtualDubMod build 2178/release
Видео
Идентификатор : 0
Формат : MPEG-4 Visual
Профиль формата : Advanced Simple@L5
Параметр BVOP формата : Нет
Параметр QPel формата : Нет
Параметр GMC формата : Без точки перехода
Параметр матрицы формата : Выборочная
Идентификатор кодека : XVID
Идентификатор кодека/Подсказка : XviD
Продолжительность : 1 ч. 24 м.
Битрейт : 2110 Кбит/сек
Ширина : 704 пикселя
Высота : 432 пикселя
Соотношение сторон : 16:10
Частота кадров : 25,000 кадров/сек
Цветовое пространство : YUV
Субдискретизация насыщенности : 4:2:0
Битовая глубина : 8 бит
Тип развёртки : Прогрессивная
Метод сжатия : С потерями
Бит/(Пиксели*Кадры) : 0.277
Размер потока : 1,25 Гбайт (91%)
Библиотека кодирования : XviD 1.2.0.dev47 (UTC 2006-11-01)
Аудио
Идентификатор : 1
Формат : AC-3
Формат/Информация : Audio Coding 3
Расширение режима : CM (complete main)
Параметр Endianness формата : Big
Идентификатор кодека : 2000
Продолжительность : 1 ч. 24 м.
Вид битрейта : Постоянный
Битрейт : 192 Кбит/сек
Каналы : 2 канала
Расположение каналов : Front: L R
Частота : 48,0 КГц
Частота кадров : 31,250 кадров/сек (1536 spf)
Метод сжатия : С потерями
Размер потока : 116 Мбайт (8%)
Выравнивание : Разделение по промежуткам
Продолжительность промежутка : 96 мс. (2,40 видеокадра)
Время предзагрузки промежутка : 96 мс.
Язык : Russian

Скриншоты


[cybertorrent.ru].t67.torrent 
Торрент: Зарегистрирован [ 2018-02-15 13:57 ] · 3F39881816282D23F1C9DF58FF1276B001FFF5B8

Скачать .torrent

Скачать

14 KB

Статус: проверено
Скачан: 0 раз
Размер: 1,37 GB
Профиль [ЛС]
Показать сообщения:    

Текущее время: 23-Май 16:46

Часовой пояс: UTC ± 0



Вы не можете начинать темы
Вы не можете отвечать на сообщения
Вы не можете редактировать свои сообщения
Вы не можете удалять свои сообщения
Вы не можете голосовать в опросах
Вы не можете прикреплять файлы к сообщениям
Вы можете скачивать файлы