Статистика раздачи
Размер:  123 MB   |    Зарегистрирован:  2 месяца 20 дней   |    Скачан:  0 раз

Полного источника не было: Никогда

 
     
 
 

Гость ®

Пол:
Не указан

Принцесса и пума / Princese un puma
Страна: СССР (Латвийская республика)
Жанр: мультфильм, экранизация
Продолжительность: 00:14:30
Год выпуска: 1986
Перевод: Любительский (одноголосый закадровый) progulkin
Русские субтитры: нет
Режиссёр: Арнольд Буровс / Arnolds Burovs
Композитор: Раймонд Паулс / Raimonds Pauls
Описание: По мотивам одноимённого рассказа О.Генри.
Бродяга с внешностью Чарли Чаплина устраивается пастухом на ранчо О’Донела - местного "короля скота" и влюбляется в его красавицу-дочь Жозефу по прозвищу "принцесса".
Качество: WEBRip
Формат: AVI
Видео: 983 kbps, 592х448 (4:3), 25.000 fps, MPEG-4 Visual (XviD)
Аудио: 192 kbps, 44.1 kHz, 2 channels, MPEG Audio (MP3)
Субтитры: отсутствуют

Подробные технические данные

General
Complete name : Princese un puma (1986).avi
Format : AVI
Format/Info : Audio Video Interleave
File size : 123 MiB
Duration : 14mn 30s
Overall bit rate : 1 185 Kbps
Writing application : VirtualDubMod 1.5.10.2 (build 2540/release)
Writing library : VirtualDubMod build 2540/release
Video
ID : 0
Format : MPEG-4 Visual
Format profile : Advanced Simple@L4
Format settings, BVOP : 2
Format settings, QPel : No
Format settings, GMC : No warppoints
Format settings, Matrix : Default (H.263)
Codec ID : XVID
Codec ID/Hint : XviD
Duration : 14mn 30s
Bit rate : 983 Kbps
Width : 592 pixels
Height : 448 pixels
Display aspect ratio : 4:3
Frame rate : 25.000 fps
Color space : YUV
Chroma subsampling : 4:2:0
Bit depth : 8 bits
Scan type : Progressive
Compression mode : Lossy
Bits/(Pixel*Frame) : 0.148
Stream size : 102 MiB (83%)
Writing library : XviD 73
Audio
ID : 1
Format : MPEG Audio
Format version : Version 1
Format profile : Layer 3
Mode : Joint stereo
Mode extension : MS Stereo
Codec ID : 55
Codec ID/Hint : MP3
Duration : 14mn 30s
Bit rate mode : Constant
Bit rate : 192 Kbps
Channel(s) : 2 channels
Sampling rate : 44.1 KHz
Compression mode : Lossy
Stream size : 19.9 MiB (16%)
Alignment : Aligned on interleaves
Interleave, duration : 40 ms (1.00 video frame)
Interleave, preload duration : 522 ms

Скриншоты

[cybertorrent.ru].t6744.torrent 
Торрент: Зарегистрирован [ 2019-09-25 15:46 ] · A3F7D16999290761994001399A6D1090CAC29464

Скачать .torrent

Скачать

20 KB

Статус: проверено
Скачан: 0 раз
Размер: 123 MB
terms.php
Показать сообщения:    

Текущее время: 15-Дек 23:18

Часовой пояс: UTC ± 0



Вы не можете начинать темы
Вы не можете отвечать на сообщения
Вы не можете редактировать свои сообщения
Вы не можете удалять свои сообщения
Вы не можете голосовать в опросах
Вы не можете прикреплять файлы к сообщениям
Вы можете скачивать файлы