Статистика раздачи
Размер:  119 MB   |    Зарегистрирован:  4 месяца 1 день   |    Скачан:  0 раз

Полного источника не было: Никогда

 
     
 
 

Гость ®

Пол:
Не указан

Звени, мой саз, звени
Страна: СССР (Азербайджанская республика)
Жанр: мультфильм, сказка
Продолжительность: 00:07:59
Год выпуска: 1976
Русские субтитры: нет
Режиссёры: Масуд Панахи, Афиз Акперов
Описание: По мотивам народной сказки.
О том, как проказник-воробей был наказан за свою наглость.
Качество: WEBRip
Формат: AVI
Видео: 1940 kbps, 688х480 (1.433), 25.000 fps, MPEG-4 Visual (XviD)
Аудио: 128 kbps, 44.1 kHz, 2 channels, MPEG Audio (MP3)
Субтитры: отсутствуют

Подробные технические данные

General
Complete name : Звени, мой саз, звени (1976).avi
Format : AVI
Format/Info : Audio Video Interleave
File size : 119 MiB
Duration : 7mn 59s
Overall bit rate : 2 078 Kbps
Writing application : VirtualDubMod 1.5.10.2 (build 2540/release)
Writing library : VirtualDubMod build 2540/release
Video
ID : 0
Format : MPEG-4 Visual
Format profile : Advanced Simple@L5
Format settings, BVOP : 2
Format settings, QPel : No
Format settings, GMC : No warppoints
Format settings, Matrix : Default (H.263)
Codec ID : XVID
Codec ID/Hint : XviD
Duration : 7mn 59s
Bit rate : 1 940 Kbps
Width : 688 pixels
Height : 480 pixels
Display aspect ratio : 1.433
Frame rate : 25.000 fps
Color space : YUV
Chroma subsampling : 4:2:0
Bit depth : 8 bits
Scan type : Progressive
Compression mode : Lossy
Bits/(Pixel*Frame) : 0.235
Stream size : 111 MiB (93%)
Writing library : XviD 73
Audio
ID : 1
Format : MPEG Audio
Format version : Version 1
Format profile : Layer 3
Codec ID : 55
Codec ID/Hint : MP3
Duration : 7mn 59s
Bit rate mode : Constant
Bit rate : 128 Kbps
Channel(s) : 2 channels
Sampling rate : 44.1 KHz
Compression mode : Lossy
Stream size : 7.31 MiB (6%)
Alignment : Split accross interleaves
Interleave, duration : 40 ms (1.00 video frame)
Interleave, preload duration : 500 ms

Скриншоты

[cybertorrent.ru].t6745.torrent 
Торрент: Зарегистрирован [ 2019-09-25 15:46 ] · 0B0449DCCE5D7CE38CE1CCAC6C27E206F3FCAC64

Скачать .torrent

Скачать

19 KB

Статус: проверено
Скачан: 0 раз
Размер: 119 MB
terms.php
Показать сообщения:    

Текущее время: 27-Янв 14:49

Часовой пояс: UTC ± 0



Вы не можете начинать темы
Вы не можете отвечать на сообщения
Вы не можете редактировать свои сообщения
Вы не можете удалять свои сообщения
Вы не можете голосовать в опросах
Вы не можете прикреплять файлы к сообщениям
Вы можете скачивать файлы