Статистика раздачи
Размер:  184 MB   |    Зарегистрирован:  2 месяца 20 дней   |    Скачан:  0 раз

Полного источника не было: Никогда

 
     
 
 

Гость ®

Пол:
Не указан

Легенда о девичьей башне / Гыз галасы ǝфсанǝси
Страна: СССР (Азербайджанская республика)
Жанр: мультфильм
Продолжительность: 00:15:00
Год выпуска: 1978
Перевод: профессиональный (дублированный)
Русские субтитры: нет
Режиссёр: Масуд Панахи
Композитор: Ариф Меликов
Описание: По мотивам народной легенды.
Шах собирается выдать замуж свою красавицу-дочь. До свадьбы она должна жить в башне, которую охраняет влюблённый витязь. Но злой колдун, которому красавица отказала, собирается похитить её хитростью и силой...
Качество: WEBRip
Формат: AVI
Видео: 1443 kbps, 720х544 (4:3), 25.000 fps, MPEG-4 Visual (XviD)
Аудио 1 (рус): 128 kbps, 44.1 kHz, 2 channels, MPEG Audio (MP3)
Аудио 2 (азер): 128 kbps, 44.1 kHz, 2 channels, MPEG Audio (MP3)
Субтитры: отсутствуют

Подробные технические данные

General
Complete name : Легенда о девичьей башне (1978).avi
Format : AVI
Format/Info : Audio Video Interleave
File size : 184 MiB
Duration : 15mn 0s
Overall bit rate : 1 714 Kbps
Writing application : VirtualDubMod 1.5.10.2 (build 2540/release)
Writing library : VirtualDubMod build 2540/release
Video
ID : 0
Format : MPEG-4 Visual
Format profile : Advanced Simple@L5
Format settings, BVOP : 2
Format settings, QPel : No
Format settings, GMC : No warppoints
Format settings, Matrix : Default (H.263)
Codec ID : XVID
Codec ID/Hint : XviD
Duration : 15mn 0s
Bit rate : 1 443 Kbps
Width : 720 pixels
Height : 544 pixels
Display aspect ratio : 4:3
Frame rate : 25.000 fps
Color space : YUV
Chroma subsampling : 4:2:0
Bit depth : 8 bits
Scan type : Progressive
Compression mode : Lossy
Bits/(Pixel*Frame) : 0.147
Stream size : 155 MiB (84%)
Writing library : XviD 73
Audio #1
ID : 1
Format : MPEG Audio
Format version : Version 1
Format profile : Layer 3
Codec ID : 55
Codec ID/Hint : MP3
Duration : 15mn 0s
Bit rate mode : Constant
Bit rate : 128 Kbps
Channel(s) : 2 channels
Sampling rate : 44.1 KHz
Compression mode : Lossy
Stream size : 13.7 MiB (7%)
Alignment : Split accross interleaves
Interleave, duration : 40 ms (1.00 video frame)
Interleave, preload duration : 500 ms
Audio #2
ID : 2
Format : MPEG Audio
Format version : Version 1
Format profile : Layer 3
Codec ID : 55
Codec ID/Hint : MP3
Duration : 15mn 0s
Bit rate mode : Constant
Bit rate : 128 Kbps
Channel(s) : 2 channels
Sampling rate : 44.1 KHz
Compression mode : Lossy
Stream size : 13.7 MiB (7%)
Alignment : Split accross interleaves
Interleave, duration : 40 ms (1.00 video frame)
Interleave, preload duration : 500 ms

Скриншоты

[cybertorrent.ru].t6747.torrent 
Торрент: Зарегистрирован [ 2019-09-25 15:46 ] · 218CA94C9251D6AF5CB7967770C0532EF1E24962

Скачать .torrent

Скачать

15 KB

Статус: проверено
Скачан: 0 раз
Размер: 184 MB
terms.php
Показать сообщения:    

Текущее время: 15-Дек 23:02

Часовой пояс: UTC ± 0



Вы не можете начинать темы
Вы не можете отвечать на сообщения
Вы не можете редактировать свои сообщения
Вы не можете удалять свои сообщения
Вы не можете голосовать в опросах
Вы не можете прикреплять файлы к сообщениям
Вы можете скачивать файлы