Статистика раздачи
Размер:  26 MB   |    Зарегистрирован:  2 месяца 18 дней   |    Скачан:  0 раз

Полного источника не было: Никогда

 
     
 
 

Гость ®

Пол:
Не указан

Однажды вечером...
Страна: СССР
Жанр: мультфильм, сатира
Продолжительность: 00:01:45
Год выпуска: 1982
Режиссёр: Владимир Самсонов
Описание: Сатирический фильм-плакат о растратчиках электроэнергии.
Качество: WEBRip
Формат: AVI
Видео: 1968 kbps, 512х384 (4:3), 25.000 fps, MPEG-4 Visual (XviD)
Аудио: 96 kbps, 44.1 kHz, 1 channel, MPEG Audio (MP3)
Субтитры: отсутствуют

Подробные технические данные

General
Complete name : Однажды вечером. 1982.avi
Format : AVI
Format/Info : Audio Video Interleave
File size : 26.0 MiB
Duration : 1mn 45s
Overall bit rate : 2 074 Kbps
Video
ID : 0
Format : MPEG-4 Visual
Format settings, BVOP : 1
Format settings, QPel : No
Format settings, GMC : No warppoints
Format settings, Matrix : Default (H.263)
Codec ID : DX50
Codec ID/Hint : DivX 5
Duration : 1mn 45s
Bit rate : 1 968 Kbps
Width : 512 pixels
Height : 384 pixels
Display aspect ratio : 4:3
Frame rate : 25.000 fps
Color space : YUV
Chroma subsampling : 4:2:0
Bit depth : 8 bits
Scan type : Progressive
Compression mode : Lossy
Bits/(Pixel*Frame) : 0.400
Stream size : 24.7 MiB (95%)
Writing library : DivX 5.0.3 (UTC 2003-01-24)
Audio
ID : 1
Format : MPEG Audio
Format version : Version 1
Format profile : Layer 3
Codec ID : 55
Codec ID/Hint : MP3
Duration : 1mn 45s
Bit rate mode : Constant
Bit rate : 96.0 Kbps
Channel(s) : 1 channel
Sampling rate : 44.1 KHz
Compression mode : Lossy
Stream size : 1.20 MiB (5%)
Alignment : Split accross interleaves
Interleave, duration : 40 ms (1.01 video frame)
Interleave, preload duration : 500 ms

Скриншоты

[cybertorrent.ru].t6748.torrent 
Торрент: Зарегистрирован [ 2019-09-25 15:46 ] · D4692DEB77843D3DA1F9A9BA9FEE520B017C5715

Скачать .torrent

Скачать

17 KB

Статус: проверено
Скачан: 0 раз
Размер: 26 MB
terms.php
Показать сообщения:    

Текущее время: 14-Дек 09:03

Часовой пояс: UTC ± 0



Вы не можете начинать темы
Вы не можете отвечать на сообщения
Вы не можете редактировать свои сообщения
Вы не можете удалять свои сообщения
Вы не можете голосовать в опросах
Вы не можете прикреплять файлы к сообщениям
Вы можете скачивать файлы