Статистика раздачи
Размер:  1,46 GB   |    Зарегистрирован:  2 месяца 14 дней   |    Скачан:  0 раз

Полного источника не было: Никогда

 
     
 
 

Гость ®

Пол:
Не указан

Мировой парень- Жанр: драма
Год выпуска: 1971
Продолжительность: 01:15:09-Режиссёр: Юрий Дубровин-В ролях: Николай Олялин, Любовь Румянцева, Гурген Тонунц, Харрий Лиепиньш, Рейно Арен, Янис Грантиньш, Валентина Сперантова, Мухтар Маниев, Самир Шахин, Николай Еременко, Улдис Лиелдидж, Владимир Кулешов, Александр Смирнов
Описание: Инженер Виктор Логинов в качестве технического представителя Минского автозавода приезжает в одну из стран Востока на международное авторалли. Герой узнает о внезапной болезни гонщика и решает принять участие в гонках.-Сэмпл | Кинопоиск-Качество видео: HDTVRip-AVC
Формат видео: MKV
Видео: x264 (High@L4.1); 1048x464, Display aspect ratio 2.258:1, 25.000 fps, 2587 Kbps
Аудио: AC-3; 16 bits 48 Khz; 2.0ch 192 Kbps; CBR
george$t писал(а):
Благодарю Bartimeyse за любезно предоставленные записи.

Исходник / сравнение

Источником для рипа послужили две записи фильма (утро / вечер) белорусского телевидения.

утро

General
ID : 1 (0x1)
Complete name : J:\1809paren_utro.ts
Format : MPEG-TS
File size : 3.51 GiB
Duration : 1 h 21 min
Overall bit rate mode : Variable
Overall bit rate : 6 158 kb/s
Video
ID : 256 (0x100)
Menu ID : 1 (0x1)
Format : AVC
Format/Info : Advanced Video Codec
Format profile : High@L4.1
Format settings : CABAC / 2 Ref Frames
Format settings, CABAC : Yes
Format settings, ReFrames : 2 frames
Codec ID : 27
Duration : 1 h 21 min
Width : 1 920 pixels
Height : 1 080 pixels
Display aspect ratio : 16:9
Frame rate : 25.000 FPS
Color space : YUV
Chroma subsampling : 4:2:0
Bit depth : 8 bits
Scan type : Progressive
Audio
ID : 257 (0x101)
Menu ID : 1 (0x1)
Format : AAC
Format/Info : Advanced Audio Codec
Format version : Version 4
Format profile : LC
Muxing mode : ADTS
Codec ID : 15
Duration : 1 h 21 min
Bit rate mode : Variable
Channel(s) : 2 channels
Channel positions : Front: L R
Sampling rate : 48.0 kHz
Frame rate : 46.875 FPS (1024 SPF)
Compression mode : Lossy
Delay relative to video : -33 ms
Menu
ID : 4096 (0x1000)
Menu ID : 1 (0x1)
Duration : 1 h 21 min
List : 256 (0x100) (AVC) / 257 (0x101) (AAC)
Service name : Service01
Service provider : FFmpeg
Service type : digital television

На видео присутствуют логотип вещателя и тв анонсы.

Сравнение с DVB
https://cybertorrent.ru/viewtopic.php?t=3575879


MediaInfo

x264 log

avs [info]: 1048x464p 1:1 @ 25/1 fps (cfr)
avs [info]: color matrix: bt709
x264 [info]: using SAR=1/1
x264 [info]: using cpu capabilities: MMX2 SSE2Fast SSSE3 SSE4.2
x264 [info]: profile High, level 4.1, 4:2:0, 8-bit
x264 [info]: frame I:666 Avg QP:18.42 size: 64155
x264 [info]: frame P:29616 Avg QP:20.95 size: 24514
x264 [info]: frame B:82460 Avg QP:22.40 size: 8365
x264 [info]: consecutive B-frames: 4.5% 6.2% 13.3% 22.0% 16.4% 30.9% 4.7% 1.4% 0.5% 0.2%
x264 [info]: mb I I16..4: 4.6% 77.3% 18.1%
x264 [info]: mb P I16..4: 0.9% 9.3% 2.4% P16..4: 48.2% 22.3% 15.1% 0.8% 0.2% skip: 0.8%
x264 [info]: mb B I16..4: 0.0% 0.9% 0.3% B16..8: 45.2% 13.0% 3.5% direct: 8.7% skip:28.5% L0:41.6% L1:44.7% BI:13.7%
x264 [info]: 8x8 transform intra:74.0% inter:67.9%
x264 [info]: direct mvs spatial:98.7% temporal:1.3%
x264 [info]: coded y,uvDC,uvAC intra: 92.1% 77.0% 35.6% inter: 36.4% 28.9% 6.0%
x264 [info]: i16 v,h,dc,p: 10% 25% 8% 56%
x264 [info]: i8 v,h,dc,ddl,ddr,vr,hd,vl,hu: 9% 13% 2% 9% 15% 13% 15% 11% 12%
x264 [info]: i4 v,h,dc,ddl,ddr,vr,hd,vl,hu: 8% 13% 2% 8% 15% 14% 16% 11% 14%
x264 [info]: i8c dc,h,v,p: 39% 28% 19% 13%
x264 [info]: Weighted P-Frames: Y:12.2% UV:4.2%
x264 [info]: ref P L0: 48.0% 14.7% 12.7% 5.0% 4.0% 3.0% 2.6% 1.5% 1.4% 1.2% 1.2% 1.0% 1.0% 0.9% 0.9% 0.7%
x264 [info]: ref B L0: 83.1% 7.0% 2.9% 1.5% 1.1% 0.9% 0.8% 0.5% 0.4% 0.4% 0.4% 0.3% 0.3% 0.2% 0.1%
x264 [info]: ref B L1: 97.1% 2.9%
x264 [info]: kb/s:2587.29
-General
Unique ID : 189980442551087177364311922591516145505 (0x8EECE6FE29879336A63C78963E8D3761)
Complete name : Мировой парень.1971.mkv
Format : Matroska
Format version : Version 2
File size : 1.46 GiB
Duration : 1 h 15 min
Overall bit rate : 2 781 kb/s
Encoded date : UTC 2019-09-23 13:50:29
Writing application : mkvmerge v7.8.0 ('River Man') 32bit built on Mar 27 2015 16:18:02
Writing library : libebml v1.3.1 + libmatroska v1.4.2
Video
ID : 1
Format : AVC
Format/Info : Advanced Video Codec
Format profile : High@L4.1
Format settings : CABAC / 16 Ref Frames
Format settings, CABAC : Yes
Format settings, ReFrames : 16 frames
Codec ID : V_MPEG4/ISO/AVC
Duration : 1 h 15 min
Bit rate : 2 587 kb/s
Width : 1 048 pixels
Height : 464 pixels
Display aspect ratio : 2.25:1
Frame rate mode : Constant
Frame rate : 25.000 FPS
Color space : YUV
Chroma subsampling : 4:2:0
Bit depth : 8 bits
Scan type : Progressive
Bits/(Pixel*Frame) : 0.213
Stream size : 1.33 GiB (91%)
Title : Мировой парень.1970
Writing library : x264 core 157 r2867+103 0d6443f t_mod_Custom_2 [8-bit@all X86]
Encoding settings : cabac=1 / ref=16 / deblock=1:-2:0 / analyse=0x3:0x133 / me=umh / subme=10 / psy=1 / fade_compensate=0.00 / psy_rd=1.05:0.10 / mixed_ref=1 / me_range=32 / chroma_me=1 / trellis=2 / 8x8dct=1 / cqm=0 / deadzone=21,11 / fast_pskip=0 / chroma_qp_offset=-3 / threads=12 / lookahead_threads=2 / sliced_threads=0 / nr=0 / decimate=0 / interlaced=0 / bluray_compat=0 / constrained_intra=0 / fgo=0 / bframes=9 / b_pyramid=2 / b_adapt=2 / b_bias=0 / direct=3 / weightb=1 / open_gop=0 / weightp=2 / keyint=250 / keyint_min=25 / scenecut=40 / intra_refresh=0 / rc_lookahead=60 / rc=2pass / mbtree=1 / bitrate=2587 / ratetol=1.0 / qcomp=0.75 / qpmin=0:0:0 / qpmax=69:69:69 / qpstep=4 / cplxblur=20.0 / qblur=0.5 / vbv_maxrate=62500 / vbv_bufsize=78125 / nal_hrd=none / filler=0 / ip_ratio=1.30 / aq=2:0.50 / aq-sensitivity=10.00 / aq-factor=1.00:1.00:1.00 / aq2=0 / aq3=0
Language : Russian
Default : Yes
Forced : No
Color range : Limited
Color primaries : BT.709
Transfer characteristics : BT.709
Matrix coefficients : BT.709
Audio
ID : 2
Format : AC-3
Format/Info : Audio Coding 3
Codec ID : A_AC3
Duration : 1 h 15 min
Bit rate mode : Constant
Bit rate : 192 kb/s
Channel(s) : 2 channels
Channel positions : Front: L R
Sampling rate : 48.0 kHz
Frame rate : 31.250 FPS (1536 SPF)
Bit depth : 16 bits
Compression mode : Lossy
Stream size : 103 MiB (7%)
Title : AC-3; 16 bits 48 Khz; 2.0ch 192 Kbps; CBR
Language : Russian
Service kind : Complete Main
Default : Yes
Forced : No

Скриншоты

[cybertorrent.ru].t6750.torrent 
Торрент: Зарегистрирован [ 2019-09-25 15:46 ] · 89C1F2D170C21690EA6FBF2D8F3B46B2C3DD33D1

Скачать .torrent

Скачать

15 KB

Статус: проверено
Скачан: 0 раз
Размер: 1,46 GB
terms.php
Показать сообщения:    

Текущее время: 09-Дек 16:43

Часовой пояс: UTC ± 0



Вы не можете начинать темы
Вы не можете отвечать на сообщения
Вы не можете редактировать свои сообщения
Вы не можете удалять свои сообщения
Вы не можете голосовать в опросах
Вы не можете прикреплять файлы к сообщениям
Вы можете скачивать файлы