Статистика раздачи
Размер:  2,66 GB   |    Зарегистрирован:  2 месяца 18 дней   |    Скачан:  0 раз
Сидов:  71  [  0 KB/s  ]   Личеров:  8  [  0 KB/s  ]  
 
     
 
 

Гость ®

Пол:
Не указан

Дылды
Год выпуска: 2019
Производство: Арт Пикчерс Вижн
Жанр: комедия
Продолжительность: ~00:25:00 серия
Субтитры: нет
Режиссёр: Сергей Сенцов
В ролях: Павел Деревянко, Анна Невская, Дарья Урсуляк, Татьяна Орлова, Павел Майков, Анна Антонова, Сергей Рубеко, Ангелина Поплавская, Изабель Эйдлен, Евгения Тремасова, Юлия Макарова (II), Дмитрий Караневский, Степан Девонин, Анатолий Горячев, Марина Коваленко, Александр Андриенко, Николай Лунин, Дарья Пицик, Надежда Карпова, Маша Тухарь
Описание: Успешный тренер, сексист и бабник Михаил Ковалёв теряет работу из-за скандального характера и неуважительного отношения к женщинам. Чтобы вернуться в Суперлигу, ему предстоит выиграть чемпионат с провинциальной студенческой женской командой. Помешать ему в этом постараются проректор-перфекционист Ирина и затаившая обиду экс-девушка Наталья.

Реклама: Нет.
Кинопоиск
Все раздачи сериала
Sample
Качество: WEBRip 1080p - Getty
Формат: MKV
Видео кодек: H.264
Аудио кодек: AC3
Видео: MPEG4 AVC Video, H264, 16:9, 1920x1080, 25 fps, ~5000 kbps, 0.096 bit/pixel
Аудио: AC3 Dolby Digital, 48.0 kHz, 2/0 (L,R) ch, 192 kbps

Внимание! Раздача ведётся путём добавления новых серий

Раздача ведётся путём добавления новых серий, при каждом добавлении создаётся новый торрент. Чтобы начать докачку новой серии, пользователям необходимо сделать следующее:
- Остановить скачивание.
- Удалить старый торрент у себя из клиента (старые серии удалять не надо).
- Скачать новый торрент и запустить его у себя в клиенте вместо старого, при этом указать клиенту путь в старую папку куда и должно происходить скачивание новых серий.
Ваш клиент при этом должен произвести хеширование (проверку) старой папки (если не производит сам - помогите ему сделать это), и будет докачивать только те серии которых у вас ещё нет. Старые серии при этом не удаляются, а продолжают раздаваться!
Если вы уже удалили старые серии, то предотвратить повторную закачку старых серий можно, отжав галочку в соответствующих местах при запуске нового торрента. По возможности, желательно не удалять старые серии как можно дольше, чтобы релизер не столько продолжал раздавать старые серии, а смог сконцентрироваться на новых.

MI

General
Unique ID : 102933759734987394139579243124170800974 (0x4D70522E1E150C5DF511DCC49F55BF4E)
Complete name : D:\Dyldy.2019.WEB-DL.(1080p).Getty\Dyldy.s01e01.2019.WEB-DL.(1080p).Getty.mkv
Format : Matroska
Format version : Version 4 / Version 2
File size : 963 MiB
Duration : 26 min 3 s
Overall bit rate mode : Variable
Overall bit rate : 5 169 kb/s
Encoded date : UTC 2019-09-24 15:56:19
Writing application : mkvmerge v36.0.0 ('Is That Jazz?') 64-bit
Writing library : libebml v1.3.9 + libmatroska v1.5.2
Video
ID : 1
Format : AVC
Format/Info : Advanced Video Codec
Format profile : High@L5
Format settings : CABAC / 5 Ref Frames
Format settings, CABAC : Yes
Format settings, ReFrames : 5 frames
Format settings, GOP : M=4, N=50
Codec ID : V_MPEG4/ISO/AVC
Duration : 26 min 3 s
Bit rate mode : Variable
Bit rate : 4 975 kb/s
Maximum bit rate : 40.0 Mb/s
Width : 1 920 pixels
Height : 1 080 pixels
Display aspect ratio : 16:9
Frame rate mode : Constant
Frame rate : 25.000 FPS
Color space : YUV
Chroma subsampling : 4:2:0
Bit depth : 8 bits
Scan type : Progressive
Bits/(Pixel*Frame) : 0.096
Stream size : 927 MiB (96%)
Language : Russian
Default : Yes
Forced : No
Color range : Limited
Color primaries : BT.709
Transfer characteristics : BT.709
Matrix coefficients : BT.709
Audio
ID : 2
Format : AC-3
Format/Info : Audio Coding 3
Codec ID : A_AC3
Duration : 26 min 3 s
Bit rate mode : Constant
Bit rate : 192 kb/s
Channel(s) : 2 channels
Channel positions : Front: L R
Sampling rate : 48.0 kHz
Frame rate : 31.250 FPS (1536 SPF)
Bit depth : 16 bits
Compression mode : Lossy
Stream size : 35.8 MiB (4%)
Language : Russian
Service kind : Complete Main
Default : Yes
Forced : No

Скриншоты


[cybertorrent.ru].t6756.torrent 
Торрент: Зарегистрирован [ 2019-09-25 15:46 ] · 7D48D679B91DE24C28BC7A4A211D21229F8D3383

Скачать .torrent

Скачать

14 KB

Статус: проверено
Скачан: 0 раз
Размер: 2,66 GB
terms.php
Показать сообщения:    

Текущее время: 14-Дек 07:09

Часовой пояс: UTC ± 0



Вы не можете начинать темы
Вы не можете отвечать на сообщения
Вы не можете редактировать свои сообщения
Вы не можете удалять свои сообщения
Вы не можете голосовать в опросах
Вы не можете прикреплять файлы к сообщениям
Вы можете скачивать файлы