Статистика раздачи
Размер:  4,69 GB   |    Зарегистрирован:  2 месяца 20 дней   |    Скачан:  0 раз
Сидов:  52  [  0 KB/s  ]   Личеров:  6  [  0 KB/s  ]  
 
     
 
 

Гость ®

Пол:
Не указан

Родительское право
Год выпуска: 2019
Производство: Феникс-Фильм по заказу телеканала Россия 1
Жанр: мелодрама
Продолжительность: ~00:52:00 серия
Субтитры: нет
Режиссёр: Николай Борц
В ролях: Марина Коняшкина, Александр Давыдов, Алексей Демидов, Татьяна Храмова, Игорь Филиппов, Юлия Пивень, Пётр Баранчеев, Людмила Титова

Описание: События разворачиваются вокруг Елены Покровской, молодой женщины, которая в один момент потеряла не только свое счастье и обеспеченную жизнь, но и права на собственную дочь. Она согласна на все – на лишение свободы, предательство, одиночество ради того, чтобы вернуть доверие и любовь своего ребенка.

Реклама: Нет.
Кино-театр
Все раздачи сериала
Sample
Качество: WEBRip - 25Kuzmich
Формат: AVI
Видео кодек: XviD
Аудио кодек: AC3
Видео: 720x400 (1.80:1), 25 fps, XviD ~1400 kbps avg, 0.195 bit/pixel
Аудио: 48.0 kHz, AC3 Dolby Digital, 2/0 (L,R) ch, ~ 192 kbps

MI

General
Complete name : D:\Roditelskoe.pravo.2018.WEB-DLRip.25Kuzmich\Roditelskoe.pravo.(01.seriya.iz.08).WEB-DLRip.25Kuzmich.avi
Format : AVI
Format/Info : Audio Video Interleave
File size : 600 MiB
Duration : 52 min 12 s
Overall bit rate : 1 608 kb/s
Writing application : VirtualDubMod 1.5.10.3 | www.virtualdub-fr.org || (build 2550/release)
Writing library : VirtualDubMod build 2550/release
Video
ID : 0
Format : MPEG-4 Visual
Format profile : Advanced Simple@L5
Format settings : BVOP1
Format settings, BVOP : 1
Format settings, QPel : No
Format settings, GMC : No warppoints
Format settings, Matrix : Default (MPEG)
Codec ID : XVID
Codec ID/Hint : XviD
Duration : 52 min 12 s
Bit rate : 1 406 kb/s
Width : 720 pixels
Height : 400 pixels
Display aspect ratio : 16:9
Frame rate : 25.000 FPS
Color space : YUV
Chroma subsampling : 4:2:0
Bit depth : 8 bits
Scan type : Progressive
Compression mode : Lossy
Bits/(Pixel*Frame) : 0.195
Stream size : 525 MiB (87%)
Writing library : XviD 73
Audio
ID : 1
Format : AC-3
Format/Info : Audio Coding 3
Codec ID : 2000
Duration : 52 min 12 s
Bit rate mode : Constant
Bit rate : 192 kb/s
Channel(s) : 2 channels
Channel positions : Front: L R
Sampling rate : 48.0 kHz
Frame rate : 31.250 FPS (1536 SPF)
Bit depth : 16 bits
Compression mode : Lossy
Stream size : 71.7 MiB (12%)
Alignment : Split accross interleaves
Interleave, duration : 40 ms (1.00 video frame)
Interleave, preload duratio : 500 ms
Service kind : Complete Main

Скриншоты


[cybertorrent.ru].t6757.torrent 
Торрент: Зарегистрирован [ 2019-09-25 15:46 ] · A2F7CB1A01041AF52738AABE3CF8A178E06F799E

Скачать .torrent

Скачать

25 KB

Статус: проверено
Скачан: 0 раз
Размер: 4,69 GB
terms.php
Показать сообщения:    

Текущее время: 15-Дек 23:03

Часовой пояс: UTC ± 0



Вы не можете начинать темы
Вы не можете отвечать на сообщения
Вы не можете редактировать свои сообщения
Вы не можете удалять свои сообщения
Вы не можете голосовать в опросах
Вы не можете прикреплять файлы к сообщениям
Вы можете скачивать файлы