Статистика раздачи
Размер:  2,74 GB   |    Зарегистрирован:  2 месяца 18 дней   |    Скачан:  0 раз
Сидов:  32  [  0 KB/s  ]   Личеров:  5  [  0 KB/s  ]  
 
     
 
 

Гость ®

Пол:
Не указан

Музыка моей души
Год выпуска: 2019
Производство: ООО "Грифон", ООО "Калейдоскоп фильм"
Жанр: драма, мелодрама
Продолжительность: ~00:45:00 серия
Субтитры: нет
Режиссёр: Максим Кубринский
В ролях: Екатерина Астахова, Тимофей Каратаев, Рэй Буртяк, Владислава Ермолаева, Елена Чарквиани, Наталья Гриншпун, Ирина Лосева, Вадим Цаллати, Евгения Каверау, Александр Миронов, Артур Бичахчян, Татьяна Яковенко, Василий Мичков, Надежда Иванко, Владимир Воробьёв

Описание: Жизнь Анастасии, студентки третьего курса музыкального училища, рушится в один миг, когда ее жених, в результате рокового стечения обстоятельств, попадает за решетку по обвинению в убийстве. Чтобы спасти его, девушка влезает в огромные долги, однако освободить любимого не удается. Настя обязуется ждать. Но десять лет разлуки — целая жизнь, полная трудностей, разочарований и слез. Жизнь, которой плевать, что ты одна, да еще и с маленьким ребенком на руках.

Реклама: Нет.
Кинопоиск
Все раздачи сериала
Sample
Качество: WEBRip - 25Kuzmich
Формат: AVI
Видео кодек: XviD
Аудио кодек: AC3
Видео: 720x400 (1.80:1), 25 fps, XviD ~1970 kbps avg, 0.274 bit/pixel
Аудио: 48.0 kHz, AC3 Dolby Digital, 2/0 (L,R) ch, ~ 192 kbps

MI

General
Complete name : D:\Muzyka.moei.dushi.2018.WEB-DLRip.25Kuzmich\Muzyka.moei.dushi.(01.seriya.iz.02).WEB-DLRip.25Kuzmich.avi
Format : AVI
Format/Info : Audio Video Interleave
File size : 1.37 GiB
Duration : 1 h 30 min
Overall bit rate : 2 174 kb/s
Writing application : VirtualDubMod 1.5.10.3 | www.virtualdub-fr.org || (build 2550/release)
Writing library : VirtualDubMod build 2550/release
Video
ID : 0
Format : MPEG-4 Visual
Format profile : Advanced Simple@L5
Format settings : BVOP1
Format settings, BVOP : 1
Format settings, QPel : No
Format settings, GMC : No warppoints
Format settings, Matrix : Default (MPEG)
Codec ID : XVID
Codec ID/Hint : XviD
Duration : 1 h 30 min
Bit rate : 1 972 kb/s
Width : 720 pixels
Height : 400 pixels
Display aspect ratio : 16:9
Frame rate : 25.000 FPS
Color space : YUV
Chroma subsampling : 4:2:0
Bit depth : 8 bits
Scan type : Progressive
Compression mode : Lossy
Bits/(Pixel*Frame) : 0.274
Stream size : 1.24 GiB (91%)
Writing library : XviD 73
Audio
ID : 1
Format : AC-3
Format/Info : Audio Coding 3
Codec ID : 2000
Duration : 1 h 30 min
Bit rate mode : Constant
Bit rate : 192 kb/s
Channel(s) : 2 channels
Channel positions : Front: L R
Sampling rate : 48.0 kHz
Frame rate : 31.250 FPS (1536 SPF)
Bit depth : 16 bits
Compression mode : Lossy
Stream size : 124 MiB (9%)
Alignment : Split accross interleaves
Interleave, duration : 40 ms (1.00 video frame)
Interleave, preload duratio : 500 ms
Service kind : Complete Main

Скриншоты


[cybertorrent.ru].t6758.torrent 
Торрент: Зарегистрирован [ 2019-09-25 15:46 ] · BD3E69E812C87F552B04960A50974C90918DF846

Скачать .torrent

Скачать

14 KB

Статус: проверено
Скачан: 0 раз
Размер: 2,74 GB
terms.php
Показать сообщения:    

Текущее время: 14-Дек 09:08

Часовой пояс: UTC ± 0



Вы не можете начинать темы
Вы не можете отвечать на сообщения
Вы не можете редактировать свои сообщения
Вы не можете удалять свои сообщения
Вы не можете голосовать в опросах
Вы не можете прикреплять файлы к сообщениям
Вы можете скачивать файлы