Статистика раздачи
Размер:  1,37 GB   |    Зарегистрирован:  3 месяца 11 дней   |    Скачан:  0 раз

Полного источника не было: Никогда

 
   
 
 

lopster ®

Пол:
Не указан
Стаж:
3 месяца 11 дней
Сообщений:
612

Отдалённые последствия
Год выпуска: 2008
Жанр: мелодрама / детектив
Продолжительность: 1:44:52
Режиссёр: Александр Копейкин
В ролях: Ярослав Бойко, Наталия Курдюбова, Ольга Ломоносова, Евгений Сидихин, Инара Слуцка
Описание: В запутанном деле о терроризирующем город маньяке, появляется ещё одна пострадавшая, чудом не ставшая жертвой. Счастливое стечение обстоятельств и привычка Сергея приходить всегда раньше назначенного времени в буквальном смысле спасают дочь Ирины Таню от гибели. Правда, со временем чувство благодарности за спасение ребёнка, сменится чисто женской тревогой – кому принадлежат в большей мере симпатии Сергея? Отчаянно ревнуя и дочь, и возлюбленного, Ирина «выдаёт» тайну рождения Тани, навязывая всем троим семейные узы. Но Сергей не спешит стать отцом для великовозрастной дочери, а Таня отправляется в провинцию раскапывать архивные курганы…

Качество: DVDRip
Формат: AVI
Видео кодек: DivX
Аудио кодек: AC3
Видео: 720x400 (1.80:1), 25 fps, DivX Codec 5.x or 6.x ~1668 kbps avg, 0.23 bit/pixel
Аудио: 48 kHz, AC3 Dolby Digital, 2/0 (L,R) ch, ~192.00 kbps avg

MediaInfo

Общее
Полное имя : Otdalennie.Posledstvij.2008.DivX.DVDRip_[torrents.ru].avi
Формат : AVI
Формат/Информация : Audio Video Interleave
Размер файла : 1,37 Гбайт
Продолжительность : 1 ч. 44 м.
Общий поток : 1868 Кбит/сек
Программа кодирования : VirtualDubMod 1.5.4.1 (build 2178/release)
Библиотека кодирования : VirtualDubMod build 2178/release
Видео
Идентификатор : 0
Формат : MPEG-4 Visual
Параметр BVOP формата : 1
Параметр QPel формата : Нет
Параметр GMC формата : Без точки перехода
Параметр матрицы формата : Default (H.263)
Режим смешивания : Сжатый битовый поток
Идентификатор кодека : DX50
Идентификатор кодека/Подсказка : DivX 5
Продолжительность : 1 ч. 44 м.
Битрейт : 1669 Кбит/сек
Ширина : 720 пикселей
Высота : 400 пикселей
Соотношение сторон : 16:9
Частота кадров : 25,000 кадров/сек
Цветовое пространство : YUV
Субдискретизация насыщенности : 4:2:0
Битовая глубина : 8 бит
Тип развёртки : Прогрессивная
Метод сжатия : С потерями
Бит/(Пиксели*Кадры) : 0.232
Размер потока : 1,22 Гбайт (89%)
Библиотека кодирования : DivX 6.7.0 (UTC 2007-09-20)
Аудио
Идентификатор : 1
Формат : AC-3
Формат/Информация : Audio Coding 3
Расширение режима : CM (complete main)
Параметр Endianness формата : Big
Идентификатор кодека : 2000
Продолжительность : 1 ч. 44 м.
Вид битрейта : Постоянный
Битрейт : 192 Кбит/сек
Каналы : 2 канала
Расположение каналов : Front: L R
Частота : 48,0 КГц
Битовая глубина : 16 бит
Метод сжатия : С потерями
Размер потока : 144 Мбайт (10%)
Выравнивание : Разделение по промежуткам
Продолжительность промежутка : 96 мс. (2,40 видеокадра)
Время предзагрузки промежутка : 96 мс.
Язык : Russian

Скриншоты

Внимание! Торрент-файл перезалит 12.07.2017 без изменения содержимого раздачи в связи с просьбой администрации снять флаг "Приватная раздача". Скачавшим ранее просьба перекачать торрент-файл, перехешировать содержимое и присоединиться к раздаче.
[cybertorrent.ru].t68.torrent 
Торрент: Зарегистрирован [ 2018-02-15 13:57 ] · 849FCA931A6D257DD222C16F41BCB86A04A8F910

Скачать .torrent

Скачать

14 KB

Статус: проверено
Скачан: 0 раз
Размер: 1,37 GB
Профиль [ЛС]
Показать сообщения:    

Текущее время: 27-Май 01:40

Часовой пояс: UTC ± 0



Вы не можете начинать темы
Вы не можете отвечать на сообщения
Вы не можете редактировать свои сообщения
Вы не можете удалять свои сообщения
Вы не можете голосовать в опросах
Вы не можете прикреплять файлы к сообщениям
Вы можете скачивать файлы