Статистика раздачи
Размер:  1,64 GB   |    Зарегистрирован:  2 месяца 17 дней   |    Скачан:  0 раз
Сидов:  2  [  0 KB/s  ]  
 
     
 
 

Гость ®

Пол:
Не указан

Дылды-- Год выпуска: 2019
Производство: Россия, Art Pictures Vision по заказу телеканала СТС
Жанр: Комедия
Продолжительность: 00:25:00
Субтитры: нет-Режиссёр: Сергей Сенцов-В ролях: Павел Деревянко, Анна Невская, Дарья Урсуляк, Татьяна Орлова, Павел Майков, Анна Антонова, Сергей Рубеко, Ангелина Поплавская, Изабель Эйдлен, Евгения Тремасова, Юлия Макарова (II), Дмитрий Караневский, Степан Девонин, Анатолий Горячев, Марина Коваленко, Александр Андриенко, Николай Лунин, Дарья Пицик, Надежда Карпова, Маша Тухарь-Описание: Успешный тренер, сексист и бабник Михаил Ковалёв теряет работу из-за скандального характера и неуважительного отношения к женщинам. Чтобы вернуться в Суперлигу, ему предстоит выиграть чемпионат с провинциальной студенческой женской командой. Помешать ему в этом постараются проректор-перфекционист Ирина и затаившая обиду экс-девушка Наталья.- -Релиз от: -Качество: WEBRip 720p
Формат: MKV
Видео кодек: H.264
Аудио кодек: AC3
Видео: MPEG-4 AVC, 1280x720 (16:9), 25.000 fps, 2923 Kbps, 0.127 bits/pixel
Аудио: 48 kHz, AC3 Dolby Digital, 2 ch, 192 Kbps
Реклама: Нет

MI

General
Complete name : Downloads\Dyldy.2019.WEB-DL.(720p).Getty\Dyldy.s01e01.2019.WEB-DL.(720p).Getty.mkv
Format : Matroska
Format version : Version 4 / Version 2
File size : 592 MiB
Duration : 26mn 3s
Overall bit rate mode : Variable
Overall bit rate : 3 178 Kbps
Encoded date : UTC 2019-09-24 15:57:36
Writing application : mkvmerge v36.0.0 ('Is That Jazz?') 64-bit
Writing library : libebml v1.3.9 + libmatroska v1.5.2
DURATION : 00:26:03.328000000
NUMBER_OF_FRAMES : 48854
NUMBER_OF_BYTES : 37519872
_STATISTICS_WRITING_APP : mkvmerge v36.0.0 ('Is That Jazz?') 64-bit
_STATISTICS_WRITING_DATE_UTC : 2019-09-24 15:57:36
_STATISTICS_TAGS : BPS DURATION NUMBER_OF_FRAMES NUMBER_OF_BYTES
Video #1
ID : 1
Format : AVC
Format/Info : Advanced Video Codec
Format profile : High@L4.1
Format settings, CABAC : Yes
Format settings, ReFrames : 5 frames
Format settings, GOP : M=4, N=50
Codec ID : V_MPEG4/ISO/AVC
Duration : 26mn 3s
Bit rate mode : Variable
Bit rate : 2 923 Kbps
Maximum bit rate : 40.0 Mbps
Width : 1 280 pixels
Height : 720 pixels
Display aspect ratio : 16:9
Frame rate mode : Constant
Frame rate : 25.000 fps
Color space : YUV
Chroma subsampling : 4:2:0
Bit depth : 8 bits
Scan type : Progressive
Bits/(Pixel*Frame) : 0.127
Stream size : 545 MiB (92%)
Language : Russian
Default : Yes
Forced : No
Color primaries : BT.709
Transfer characteristics : BT.709
Matrix coefficients : BT.709
Color range : Limited
Audio #2
ID : 2
Format : AC-3
Format/Info : Audio Coding 3
Mode extension : CM (complete main)
Format settings, Endianness : Big
Codec ID : A_AC3
Duration : 26mn 3s
Bit rate mode : Constant
Bit rate : 192 Kbps
Channel(s) : 2 channels
Channel positions : Front: L R
Sampling rate : 48.0 KHz
Bit depth : 16 bits
Compression mode : Lossy
Stream size : 35.8 MiB (6%)
Language : Russian
Default : Yes
Forced : No

Скриншоты

Внимание! Раздача ведётся путём добавления новых серий:

(1) остановить скачивание,
(2) удалить старый торрент у себя из клиента (старые серии удалять не надо),
(3) скачать новый торрент и запустить его у себя в клиенте вместо старого, при этом указать клиенту путь в старую папку куда и должно происходить скачивание новых серий.
Ваш клиент при этом должен произвести хеширование (проверку) старой папки (если не производит сам - помогите ему сделать это), и будет докачивать только те серии которых у вас ещё нет. Старые серии при этом не удаляются, а продолжают раздаваться!
Eсли вы уже удалили старые серии, то предотвратить повторную закачку старых серий можно, отжав галочку в соответсвующих местах при запуске нового торрента. По возможности, желательно не удалять старые серии как можно дольше чтобы релизёр не столько продолжал раздавать старые серии, а смог сконцентрироваться на новых
.
Предыдущие и альтернативные раздачи
[cybertorrent.ru].t6838.torrent 
Торрент: Зарегистрирован [ 2019-09-26 16:04 ] · BE39921198C61BEE9EDBF1874753F1A5F947D7CD

Скачать .torrent

Скачать

9 KB

Статус: проверено
Скачан: 0 раз
Размер: 1,64 GB
terms.php
Показать сообщения:    

Текущее время: 14-Дек 07:45

Часовой пояс: UTC ± 0



Вы не можете начинать темы
Вы не можете отвечать на сообщения
Вы не можете редактировать свои сообщения
Вы не можете удалять свои сообщения
Вы не можете голосовать в опросах
Вы не можете прикреплять файлы к сообщениям
Вы можете скачивать файлы