Статистика раздачи
Размер:  1,3 GB   |    Зарегистрирован:  2 месяца 19 дней   |    Скачан:  0 раз

Полного источника не было: Никогда

 
     
 
 

Гость ®

Пол:
Не указан

Двое на острове слёз- Жанр: драма
Год выпуска: 1986
Продолжительность: 01:26:05-Режиссёр: Виктор Дашук-В ролях:
Михаил Неганов, Светлана Рябова, Сергей Колтаков, Михаил Жигалов, Светлана Смирнова, Светлана Андропова (Маслеева), Ричард Борткевич, Владилена Харитонова, Альберт Акчурин, Александра Зимина, Мария Капнист, Андрей Бубашкин, Иван Карташов
Описание:
Однажды в небольшом поселке, где живет девушка Оля, остановились туристы. Оля влюбилась в Севу и забыла про Леонида, служившего в армии. Сева уехал, Ольга родила сына, вернулся Леонид и простил ей измену. Они поженились, жизнь стала налаживаться, но...-Сэмпл | Кинопоиск-Качество видео: HDTVRip-AVC
Формат видео: MKV
Видео: x264 (High@L4.1); 1152x476, Display aspect ratio 2.420:1, 25.000 fps, 1965 Kbps
Аудио: AC-3; 16 bits 48 Khz; 2.0ch 192 Kbps; CBR
george$t писал(а):
Благодарю Bartimeyse за любезно предоставленные записи.

Исходник / сравнение

Источником рипа послужили две записи фильма (утро / вечер) белорусского телевидения.

утро

General
ID : 1 (0x1)
Complete name : J:\1709dvoe_utro.ts
Format : MPEG-TS
File size : 3.91 GiB
Duration : 1 h 30 min
Overall bit rate mode : Variable
Overall bit rate : 6 163 kb/s
Video
ID : 256 (0x100)
Menu ID : 1 (0x1)
Format : AVC
Format/Info : Advanced Video Codec
Format profile : High@L4.1
Format settings : CABAC / 2 Ref Frames
Format settings, CABAC : Yes
Format settings, ReFrames : 2 frames
Codec ID : 27
Duration : 1 h 30 min
Width : 1 920 pixels
Height : 1 080 pixels
Display aspect ratio : 16:9
Frame rate : 25.000 FPS
Color space : YUV
Chroma subsampling : 4:2:0
Bit depth : 8 bits
Scan type : Progressive
Audio
ID : 257 (0x101)
Menu ID : 1 (0x1)
Format : AAC
Format/Info : Advanced Audio Codec
Format version : Version 4
Format profile : LC
Muxing mode : ADTS
Codec ID : 15
Duration : 1 h 30 min
Bit rate mode : Variable
Channel(s) : 2 channels
Channel positions : Front: L R
Sampling rate : 48.0 kHz
Frame rate : 46.875 FPS (1024 SPF)
Compression mode : Lossy
Delay relative to video : -29 ms
Menu
ID : 4096 (0x1000)
Menu ID : 1 (0x1)
Duration : 1 h 30 min
List : 256 (0x100) (AVC) / 257 (0x101) (AAC)
Service name : Service01
Service provider : FFmpeg
Service type : digital television

На видео присутствуют логотип вещателя и тв анонсы.

Сравнение с DVB
https://cybertorrent.ru/viewtopic.php?t=4851278


MediaInfo

x264 log

avs [info]: 1152x476p 1:1 @ 25/1 fps (cfr)
avs [info]: color matrix: bt709
x264 [info]: using SAR=1/1
x264 [info]: using cpu capabilities: MMX2 SSE2Fast SSSE3 SSE4.2
x264 [info]: frame I:596 Avg QP:16.55 size: 52664
x264 [info]: frame P:28169 Avg QP:18.38 size: 22556
x264 [info]: frame B:100365 Avg QP:20.83 size: 5996
x264 [info]: consecutive B-frames: 1.2% 1.8% 8.5% 24.9% 20.5% 36.8% 5.3% 0.7% 0.2% 0.1%
x264 [info]: mb I I16..4: 4.6% 81.5% 13.9%
x264 [info]: mb P I16..4: 1.2% 14.3% 1.6% P16..4: 34.3% 36.1% 10.4% 1.1% 0.1% skip: 0.8%
x264 [info]: mb B I16..4: 0.2% 1.4% 0.2% B16..8: 32.1% 19.0% 2.7% direct: 6.4% skip:38.0% L0:39.0% L1:45.6% BI:15.4%
x264 [info]: 8x8 transform intra:82.7% inter:57.9%
x264 [info]: coded y,uvDC,uvAC intra: 83.9% 76.4% 38.4% inter: 22.2% 22.7% 7.3%
x264 [info]: i16 v,h,dc,p: 13% 13% 6% 68%
x264 [info]: i8 v,h,dc,ddl,ddr,vr,hd,vl,hu: 13% 10% 7% 8% 11% 12% 12% 12% 15%
x264 [info]: i4 v,h,dc,ddl,ddr,vr,hd,vl,hu: 14% 13% 5% 6% 14% 13% 14% 9% 12%
x264 [info]: i8c dc,h,v,p: 36% 28% 20% 16%
x264 [info]: Weighted P-Frames: Y:4.9% UV:1.4%
x264 [info]: ref P L0: 44.5% 9.3% 16.2% 5.0% 4.9% 3.4% 3.6% 1.8% 2.0% 1.6% 1.7% 1.4% 1.5% 1.3% 1.5% 0.1%
x264 [info]: ref B L0: 87.5% 6.6% 2.0% 0.9% 0.6% 0.6% 0.4% 0.3% 0.2% 0.2% 0.2% 0.2% 0.2% 0.1%
x264 [info]: ref B L1: 97.7% 2.3%
x264 [info]: kb/s:1964.71
-General
Unique ID : 192882246285430925937452913855883561457 (0x911BC4F67E1AB33F83393CC5E0EEC9F1)
Complete name : Двое на острове слез.1986.mkv
Format : Matroska
Format version : Version 2
File size : 1.30 GiB
Duration : 1 h 26 min
Overall bit rate : 2 158 kb/s
Encoded date : UTC 2019-09-25 12:32:37
Writing application : mkvmerge v7.8.0 ('River Man') 32bit built on Mar 27 2015 16:18:02
Writing library : libebml v1.3.1 + libmatroska v1.4.2
Video
ID : 1
Format : AVC
Format/Info : Advanced Video Codec
Format profile : High@L4.1
Format settings : CABAC / 15 Ref Frames
Format settings, CABAC : Yes
Format settings, ReFrames : 15 frames
Codec ID : V_MPEG4/ISO/AVC
Duration : 1 h 26 min
Bit rate : 1 924 kb/s
Width : 1 152 pixels
Height : 476 pixels
Display aspect ratio : 2.40:1
Frame rate mode : Constant
Frame rate : 25.000 FPS
Color space : YUV
Chroma subsampling : 4:2:0
Bit depth : 8 bits
Scan type : Progressive
Bits/(Pixel*Frame) : 0.140
Stream size : 1.16 GiB (89%)
Title : Двое на острове слез.1986
Writing library : x264 core 157 r2867+103 0d6443f t_mod_Custom_2 [8-bit@all X86]
Encoding settings : cabac=1 / ref=15 / deblock=1:-2:-2 / analyse=0x3:0x133 / me=umh / subme=11 / psy=1 / fade_compensate=0.00 / psy_rd=1.06:0.15 / mixed_ref=1 / me_range=32 / chroma_me=1 / trellis=2 / 8x8dct=1 / cqm=0 / deadzone=21,11 / fast_pskip=0 / chroma_qp_offset=-3 / threads=12 / lookahead_threads=2 / sliced_threads=0 / nr=0 / decimate=0 / interlaced=0 / bluray_compat=0 / constrained_intra=0 / fgo=0 / bframes=9 / b_pyramid=2 / b_adapt=2 / b_bias=0 / direct=1 / weightb=1 / open_gop=0 / weightp=2 / keyint=250 / keyint_min=25 / scenecut=40 / intra_refresh=0 / rc_lookahead=60 / rc=crf / mbtree=0 / crf=17.6000 / qcomp=0.60 / qpmin=0:0:0 / qpmax=69:69:69 / qpstep=4 / vbv_maxrate=62500 / vbv_bufsize=78125 / crf_max=0.0 / nal_hrd=none / filler=0 / ip_ratio=1.40 / pb_ratio=1.30 / aq=1:0.40 / aq-sensitivity=10.00 / aq-factor=1.00:1.00:1.00 / aq2=0 / aq3=0
Language : Russian
Default : Yes
Forced : No
Color range : Limited
Color primaries : BT.709
Transfer characteristics : BT.709
Matrix coefficients : BT.709
Audio
ID : 2
Format : AC-3
Format/Info : Audio Coding 3
Codec ID : A_AC3
Duration : 1 h 26 min
Bit rate mode : Constant
Bit rate : 192 kb/s
Channel(s) : 2 channels
Channel positions : Front: L R
Sampling rate : 48.0 kHz
Frame rate : 31.250 FPS (1536 SPF)
Bit depth : 16 bits
Compression mode : Lossy
Stream size : 118 MiB (9%)
Title : AC-3; 16 bits 48 Khz; 2.0ch 192 Kbps; CBR
Language : Russian
Service kind : Complete Main
Default : Yes
Forced : No

Скриншоты

[cybertorrent.ru].t6840.torrent 
Торрент: Зарегистрирован [ 2019-09-26 16:04 ] · 218BAAF52C0C6D7679DF54E5EDA87FED7329A6F0

Скачать .torrent

Скачать

13 KB

Статус: проверено
Скачан: 0 раз
Размер: 1,3 GB
terms.php
Показать сообщения:    

Текущее время: 15-Дек 23:14

Часовой пояс: UTC ± 0



Вы не можете начинать темы
Вы не можете отвечать на сообщения
Вы не можете редактировать свои сообщения
Вы не можете удалять свои сообщения
Вы не можете голосовать в опросах
Вы не можете прикреплять файлы к сообщениям
Вы можете скачивать файлы