Статистика раздачи
Размер:  1,46 GB   |    Зарегистрирован:  2 месяца 13 дней   |    Скачан:  0 раз

Полного источника не было: Никогда

 
     
 
 

Гость ®

Пол:
Не указан

Безбожная четверка / Ciakmull - L'uomo della vendetta / De Bastaard van Dodge City
Страна: Италия
Жанр: вестерн, приключения
Год выпуска: 1970
Продолжительность: 01:34:18

Перевод: Авторский (одноголосый закадровый) Василий Горчаков
Субтитры: нет
Режиссер: Энцо Барбони / Enzo Barboni
В ролях: Леонард Манн, Вуди Строуд, Пьетро Мартелланца, Джордж Истмен, Хельмут Шнайдер, Лучио Розато, Ален Ная, Джузеппе Лауричелла
Описание: Молодой человек, потерявший память, бежит из тюрьмы с тремя другими осужденными. Они помогают ему найти след из прошлого, и приезжают в деревню, где его узнают две враждующие семьи. Оказывается, что он имеет репутацию ганфайтера, и ему было заплачено за убийство…
Сэмпл: http://multi-up.com/1242139
Качество видео: HDRip (Исходник Ciakmull - L'uomo della vendetta (1970) BDRip 1080p.mkv)
Формат видео: AVI
Видео: XviD 73, 720x384, (1,85:1), 23,976 fps, 2012 Кбит/с, 8 бит, 0.30 bit/pixel
Аудио: Русский (АС3, 2 ch (Front: L R), 48,0 KHz, 192 Kbps)

MediaInfo

Общее
Полное имя : D:\Фильмы на трекер\Безбожная четверка (вестерн, приключения 1970 год).avi
Формат : AVI
Формат/Информация : Audio Video Interleave
Размер файла : 1,46 Гбайт
Продолжительность : 1 ч. 34 м.
Общий поток : 2213 Кбит/сек
Программа кодирования : VirtualDubMod 1.5.10.3 | www.virtualdub-fr.org || (build 2550/release)
Библиотека кодирования : VirtualDubMod build 2550/release
Видео
Идентификатор : 0
Формат : MPEG-4 Visual
Профиль формата : Advanced Simple@L5
Параметр BVOP формата : 2
Параметр QPel формата : Нет
Параметр GMC формата : Без точки перехода
Параметр матрицы формата : Выборочная
Идентификатор кодека : XVID
Идентификатор кодека/Подсказка : XviD
Продолжительность : 1 ч. 34 м.
Битрейт : 2012 Кбит/сек
Ширина : 720 пикселей
Высота : 384 пикселя
Соотношение сторон : 1,85:1
Частота кадров : 23,976 (23976/1000) кадра/сек
Цветовое пространство : YUV
Субдискретизация насыщенности : 4:2:0
Битовая глубина : 8 бит
Тип развёртки : Прогрессивная
Метод сжатия : С потерями
Бит/(Пиксели*Кадры) : 0.303
Размер потока : 1,33 Гбайт (91%)
Библиотека кодирования : XviD 73
Аудио
Идентификатор : 1
Формат : AC-3
Формат/Информация : Audio Coding 3
Расширение режима : CM (complete main)
Параметр Endianness формата : Big
Идентификатор кодека : 2000
Продолжительность : 1 ч. 34 м.
Вид битрейта : Постоянный
Битрейт : 192 Кбит/сек
Каналы : 2 канала
Расположение каналов : Front: L R
Частота : 48,0 КГц
Частота кадров : 31,250 кадров/сек (1536 spf)
Метод сжатия : С потерями
Размер потока : 130 Мбайт (9%)
Выравнивание : Разделение по промежуткам
Продолжительность промежутка : 42 мс. (1,00 видеокадр)
Время предзагрузки промежутка : 500 мс.

Скриншот c названием фильма

Скриншоты

[cybertorrent.ru].t6847.torrent 
Торрент: Зарегистрирован [ 2019-09-26 16:04 ] · 17D577D5EC3E40BC0BF4811E1F1E044E0E55E86B

Скачать .torrent

Скачать

15 KB

Статус: проверено
Скачан: 0 раз
Размер: 1,46 GB
terms.php
Показать сообщения:    

Текущее время: 09-Дек 16:05

Часовой пояс: UTC ± 0



Вы не можете начинать темы
Вы не можете отвечать на сообщения
Вы не можете редактировать свои сообщения
Вы не можете удалять свои сообщения
Вы не можете голосовать в опросах
Вы не можете прикреплять файлы к сообщениям
Вы можете скачивать файлы