Статистика раздачи
Размер:  6,91 GB   |    Зарегистрирован:  2 месяца 17 дней   |    Скачан:  0 раз
Сидов:  33  [  0 KB/s  ]   Личеров:  4  [  0 KB/s  ]  
 
     
 
 

Гость ®

Пол:
Не указан

Петля
Год выпуска: 2009
Производство: "Форвард-Фильм", Студия "Центр Кинопроизводства"
Жанр: детектив, криминальный фильм, экранизация
Продолжительность: 12 x ~ 00:45:00
Субтитры: Нет
Режиссёр: Александр Павловский
В ролях: Андрей Фролов (II), Анастасия Панина, Анатолий Руденко, Сергей Шеховцов, Александр Яковлев, Яна Чигир, Кирилл Гребенщиков, Александр Давыдов (IV), Полина Долинская, Григорий Данцигер, Андрей Савостьянов, Елена Глебова, Виктория Полторак, Владимир Юматов, Сергей Сосновский, Олег Васильков, Марина Гайзидорская, Людмила Гнилова, Александр Анисимов (IV), Сергей Жарков, Иван Суханов, Надежда Подъяпольская, Ирина Лосева, Игорь Серебряный, Николай Козак, Сергей Загребнев, Андрей Троицкий, Александр Ревенко, Руслан Спояло, Наталья Худякова, Пётр Баранчеев, Валерий Кудашкин, Сергей Моложаев, Станислав Мотырев, Дмитрий Ячевский, Виктор Соловьёв, Павел Мисаилов, Вячеслав Агашкин, Николай Сирин
Описание: По роману Г. Сохрина "Паутина". Действие этого детектива разворачивается в современной Москве. В одном из районов столицы происходит ряд квартирных краж. Последняя – выглядит особенно странной: в доме была собака, но она не тронула грабителей! Дело расследует молодой опер Сергей Свешников, к которому, в виду накопившихся нераскрытых краж, подключается начальник уголовного розыска подполковник Валерий Федоров. В центре действия оказывается и только-только освободившийся из тюрьмы Игорь Лунев, поклявшийся себе, что больше «никогда». Но, конечно же, мир криминала не отпускает «так просто». Игорю придется через многое пройти, прежде чем ему удастся выпутаться из преступных сетей.
Реклама: Нет
Сэмпл: http://multi-up.com/1242148
Качество: WEBRip-AVC
Формат: MKV
Видео кодек: H.264
Аудио кодек: AC3
Видео: MPEG-4 (AVC), 720x400, 25 fps, ~ 1600 kbps, ~ 0.22 bit/pixel
Аудио: AC3, 44.1 kHz, 2 ch, 192 Kbps

MI

General
Unique ID : 226036972471569829385002946262892578075 (0xAA0D232B7A38FC42AC40F0B9A3A4851B)
Complete name : Петля (01 сер.).mkv
Format : Matroska
Format version : Version 2
File size : 592 MiB
Duration : 46 min 10 s
Overall bit rate : 1 793 kb/s
Encoded date : UTC 2019-08-29 07:35:44
Writing application : mkvmerge v7.8.0 ('River Man') 32bit built on Apr 3 2015 12:11:22
Writing library : libebml v1.3.1 + libmatroska v1.4.2
Video
ID : 1
Format : AVC
Format/Info : Advanced Video Codec
Format profile : High@L3
Format settings : CABAC / 6 Ref Frames
Format settings, CABAC : Yes
Format settings, Reference : 6 frames
Codec ID : V_MPEG4/ISO/AVC
Duration : 46 min 10 s
Bit rate : 1 600 kb/s
Width : 720 pixels
Height : 400 pixels
Display aspect ratio : 16:9
Frame rate mode : Constant
Frame rate : 25.000 FPS
Color space : YUV
Chroma subsampling : 4:2:0
Bit depth : 8 bits
Scan type : Progressive
Bits/(Pixel*Frame) : 0.222
Stream size : 517 MiB (87%)
Writing library : x264 core 157 r2935 545de2f
Encoding settings : cabac=1 / ref=6 / deblock=1:0:0 / analyse=0x3:0x113 / me=umh / subme=8 / psy=1 / psy_rd=1.00:0.00 / mixed_ref=1 / me_range=24 / chroma_me=1 / trellis=1 / 8x8dct=1 / cqm=0 / deadzone=21,11 / fast_pskip=1 / chroma_qp_offset=-2 / threads=4 / lookahead_threads=1 / sliced_threads=0 / nr=0 / decimate=1 / interlaced=0 / bluray_compat=0 / stitchable=1 / constrained_intra=0 / bframes=6 / b_pyramid=2 / b_adapt=1 / b_bias=0 / direct=3 / weightb=1 / open_gop=0 / weightp=2 / keyint=250 / keyint_min=25 / scenecut=40 / intra_refresh=0 / rc_lookahead=40 / rc=2pass / mbtree=1 / bitrate=1600 / ratetol=1.0 / qcomp=0.60 / qpmin=0 / qpmax=69 / qpstep=4 / cplxblur=20.0 / qblur=0.5 / ip_ratio=1.40 / aq=1:1.00
Default : Yes
Forced : No
Audio
ID : 2
Format : AC-3
Format/Info : Audio Coding 3
Commercial name : Dolby Digital
Codec ID : A_AC3
Duration : 46 min 10 s
Bit rate mode : Constant
Bit rate : 192 kb/s
Channel(s) : 2 channels
Channel layout : L R
Sampling rate : 44.1 kHz
Frame rate : 28.711 FPS (1536 SPF)
Bit depth : 16 bits
Compression mode : Lossy
Stream size : 63.4 MiB (11%)
Service kind : Complete Main
Default : Yes
Forced : No

Скриншоты

Предыдущие и альтернативные раздачи
[cybertorrent.ru].t6848.torrent 
Торрент: Зарегистрирован [ 2019-09-26 16:04 ] · 2E302AD3BFAE5FE3784FB840089DC45653E49AFA

Скачать .torrent

Скачать

19 KB

Статус: проверено
Скачан: 0 раз
Размер: 6,91 GB
terms.php
Показать сообщения:    

Текущее время: 14-Дек 07:49

Часовой пояс: UTC ± 0



Вы не можете начинать темы
Вы не можете отвечать на сообщения
Вы не можете редактировать свои сообщения
Вы не можете удалять свои сообщения
Вы не можете голосовать в опросах
Вы не можете прикреплять файлы к сообщениям
Вы можете скачивать файлы