Статистика раздачи
Размер:  1,46 GB   |    Зарегистрирован:  2 месяца 15 дней   |    Скачан:  0 раз

Полного источника не было: Никогда

 
     
 
 

Гость ®

Пол:
Не указан

-Музыка моей души-- -Год выпуска: 2019
Производство: ООО "Грифон", ООО "Калейдоскоп"
Жанр: драма, мелодрама
Продолжительность: ~00:45:00
Субтитры: нет-Режиссёр: Максим Кубринский-В ролях: Екатерина Астахова, Тимофей Каратаев, Рэй Буртяк, Владислава Ермолаева, Елена Чарквиани, Наталья Гриншпун, Ирина Лосева, Вадим Цаллати, Евгения Каверау, Александр Миронов, Артур Бичахчян, Татьяна Яковенко, Василий Мичков, Надежда Иванко, Владимир Воробьёв-Описание: Жизнь Анастасии, студентки третьего курса музыкального училища, рушится в один миг, когда ее жених, в результате рокового стечения обстоятельств, попадает за решетку по обвинению в убийстве. Чтобы спасти его, девушка влезает в огромные долги, однако освободить любимого не удается. Настя обязуется ждать. Но десять лет разлуки — целая жизнь, полная трудностей, разочарований и слез. Жизнь, которой плевать, что ты одна, да еще и с маленьким ребенком на руках.-Релиз группы: -Предыдущие и альтернативные раздачи-Реклама: Нет- - -Качество: WEBRip-AVC / WEBRip 1080p
Формат: MKV
Видео кодек: H.264
Аудио кодек: AC3-Видео: MPEG-4 AVC, 736x414 (16:9), 25.000 fps, ~962 kbps avg, 0.126 bit/pixel
Аудио: 48 kHz, AC3 Dolby Digital, 2/0 (L,R) ch, ~192 kbps avg-

MediaInfo

Код:Complete name : D:\Раздача\Музыка моей души (2019)\01 - Музыка моей души (2019) WEBRip-AVC_ivanes.mkv
Format : Matroska
Format version : Version 2
File size : 746 MiB
Duration : 1 h 30 min
Overall bit rate : 1 156 kb/s
Movie name : 01 - Музыка моей души (2019) WEBRip-AVC_ivanes
Encoded date : UTC 2019-09-26 12:03:06
Writing application : mkvmerge v4.4.0 ('Die Wiederkehr') сборка от Jan 3 2011 21:40:45
Writing library : libebml v1.0.0 + libmatroska v1.0.0
Cover : Yes
Attachments : cover.jpg
Video
ID : 1
Format : AVC
Format/Info : Advanced Video Codec
Format profile : High@L4.1
Format settings : CABAC / 10 Ref Frames
Format settings, CABAC : Yes
Format settings, Reference : 10 frames
Codec ID : V_MPEG4/ISO/AVC
Duration : 1 h 30 min
Bit rate : 962 kb/s
Width : 736 pixels
Height : 414 pixels
Display aspect ratio : 16:9
Frame rate mode : Constant
Frame rate : 25.000 FPS
Color space : YUV
Chroma subsampling : 4:2:0
Bit depth : 8 bits
Scan type : Progressive
Bits/(Pixel*Frame) : 0.126
Stream size : 607 MiB (81%)
Title : Rip by ivanes
Writing library : x264 core 158 r2984+49 6932f4a t_mod_New [0-bit@all X86]
Encoding settings : cabac=1 / ref=10 / deblock=1:-3:-3 / analyse=0x3:0x113 / me=umh / subme=8 / psy=1 / fade_compensate=0.00 / psy_rd=1.00:0.00 / mixed_ref=1 / me_range=32 / chroma_me=1 / trellis=2 / 8x8dct=1 / cqm=0 / deadzone=21,11 / fast_pskip=0 / chroma_qp_offset=-2 / threads=12 / lookahead_threads=3 / sliced_threads=0 / nr=0 / decimate=1 / interlaced=0 / bluray_compat=0 / constrained_intra=0 / fgo=0 / bframes=10 / b_pyramid=2 / b_adapt=2 / b_bias=0 / direct=1 / weightb=1 / open_gop=0 / weightp=2 / keyint=250 / keyint_min=25 / scenecut=40 / intra_refresh=0 / rc_lookahead=60 / rc=2pass / mbtree=0 / bitrate=962 / ratetol=1.0 / qcomp=0.60 / qpmin=0:0:0 / qpmax=69:69:69 / qpstep=4 / cplxblur=20.0 / qblur=0.5 / vbv_maxrate=50000 / vbv_bufsize=62500 / nal_hrd=none / filler=0 / ip_ratio=1.40 / pb_ratio=1.30 / aq=1:1.00 / aq-sensitivity=10.00 / aq-factor=1.00:1.00:1.00 / aq2=0 / aq3=0
Default : Yes
Forced : No
Statistics Tags Issue : mkvmerge v29.0.0 ('Like It Or Not') 64-bit 2019-09-26 11:38:00 / mkvmerge v4.4.0 ('Die Wiederkehr') сборка от Jan 3 2011 21:40:45 2019-09-26 12:03:06
FromStats_BitRate : 961677
FromStats_Duration : 01:30:16.000000000
FromStats_FrameCount : 135400
FromStats_StreamSize : 651055981
Audio
ID : 2
Format : AC-3
Format/Info : Audio Coding 3
Commercial name : Dolby Digital
Codec ID : A_AC3
Duration : 1 h 30 min
Bit rate mode : Constant
Bit rate : 192 kb/s
Channel(s) : 2 channels
Channel layout : L R
Sampling rate : 48.0 kHz
Frame rate : 31.250 FPS (1536 SPF)
Bit depth : 16 bits
Compression mode : Lossy
Stream size : 124 MiB (17%)
Language : Russian
Service kind : Complete Main
Default : Yes
Forced : No

Скриншоты

[cybertorrent.ru].t6849.torrent 
Торрент: Зарегистрирован [ 2019-09-26 16:04 ] · CB50FB9E6E28BAD11F99CBF5C1D8AC1B3A627A0C

Скачать .torrent

Скачать

15 KB

Статус: проверено
Скачан: 0 раз
Размер: 1,46 GB
terms.php
Показать сообщения:    

Текущее время: 11-Дек 21:51

Часовой пояс: UTC ± 0



Вы не можете начинать темы
Вы не можете отвечать на сообщения
Вы не можете редактировать свои сообщения
Вы не можете удалять свои сообщения
Вы не можете голосовать в опросах
Вы не можете прикреплять файлы к сообщениям
Вы можете скачивать файлы