Статистика раздачи
Размер:  1,37 GB   |    Зарегистрирован:  3 месяца 9 дней   |    Скачан:  0 раз

Полного источника не было: Никогда

 
   
 
 

lopster ®

Пол:
Не указан
Стаж:
3 месяца 9 дней
Сообщений:
612

Антидурь
Год выпуска: 2007
Жанр: криминальная комедия
Продолжительность: 01:31:13
Режиссер: Владимир Щегольков
В ролях: Дмитрий Дюжев, Владимир Турчинский, Татьяна Догилева, Александр Баширов, Игорь Миркурбанов, Мария Сёмкина, Владимир Симонов, Олег Сорокин, Игорь Яцко, Григорий Перель, Василий Стрельников, Марина Ерисова, Адам Булгучев, Роман Крюков, Дарья Погодина, Олег Шеремет-Доска
Описание: Провалить задание, угробив по ошибке в Лондоне известного олигарха? Такого спецслужбы не прощают. Герои фильма, спецагенты Виктор Вельмишев и Влад Кошкин, оказываются "списанными" в непонятное заведение со странным названием "Антидурь", где их боссом отныне становится суровый полковник Зинаида Мороз и где им не дает соскучиться криминалист Николай Раков. Наши герои совсем было впали в отчаяние, примеряя на себя роль "канцелярских крыс", как неожиданно в размеренное существование двух друзей врывается случай, превращая их жизнь в череду невероятных событий и нелепых авантюр...
Качество видео: DVDRip
Формат видео: AVI
Видео: 720x416 (1.73:1), 25 fps, DivX Codec 5.x or 6.x ~1692 kbps avg, 0.23 bit/pixel
Аудио: 48 kHz, AC3 Dolby Digital, 3/2 (L,C,R,l,r) + LFE ch, ~448.00 kbps avg

MI

Полное имя : F:\Antidur_[torrents.ru].avi
Формат : AVI
Формат/Информация : Audio Video Interleave
Размер файла : 1,37 Гбайт
Продолжительность : 1 ч. 31 м.
Общий поток : 2147 Кбит/сек
Программа кодирования : VirtualDubMod 1.5.4.1 (build 2178/release)
Библиотека кодирования : VirtualDubMod build 2178/release
Видео
Идентификатор : 0
Формат : MPEG-4 Visual
Параметр BVOP формата : 1
Параметр QPel формата : Нет
Параметр GMC формата : Без точки перехода
Параметр матрицы формата : Default (H.263)
Режим смешивания : Сжатый битовый поток
Идентификатор кодека : DX50
Идентификатор кодека/Подсказка : DivX 5
Продолжительность : 1 ч. 31 м.
Битрейт : 1692 Кбит/сек
Ширина : 720 пикселей
Высота : 416 пикселей
Соотношение сторон : 16:9
Частота кадров : 25,000 кадров/сек
Цветовое пространство : YUV
Субдискретизация насыщенности : 4:2:0
Битовая глубина : 8 бит
Тип развёртки : Прогрессивная
Метод сжатия : С потерями
Бит/(Пиксели*Кадры) : 0.226
Размер потока : 1,08 Гбайт (79%)
Библиотека кодирования : DivX 6.8.2 (UTC 2008-05-17)
Аудио
Идентификатор : 1
Формат : AC-3
Формат/Информация : Audio Coding 3
Расширение режима : CM (complete main)
Идентификатор кодека : 2000
Продолжительность : 1 ч. 31 м.
Вид битрейта : Постоянный
Битрейт : 448 Кбит/сек
Каналы : 6 каналов
Расположение каналов : Front: L C R, Side: L R, LFE
Частота : 48,0 КГц
Битовая глубина : 16 бит
Метод сжатия : С потерями
Размер потока : 292 Мбайт (21%)
Выравнивание : Разделение по промежуткам
Продолжительность промежутка : 96 мс. (2,40 видеокадра)
Время предзагрузки промежутка : 96 мс.

Скриншоты

Сравнение

http://cybertorrent.ru/viewtopic.php?t=381122
http://screenshotcomparison.com/comparison/137225/ + файл конкурента осветлён
http://screenshotcomparison.com/comparison/137226/ - мое сравнение с исходником
http://screenshotcomparison.com/comparison/137227/ - сравнение конкурента с исходником
[cybertorrent.ru].t69.torrent 
Торрент: Зарегистрирован [ 2018-02-15 13:57 ] · CE2B344DE053946CB28E1C29BCF6D0FF7B797C7C

Скачать .torrent

Скачать

14 KB

Статус: проверено
Скачан: 0 раз
Размер: 1,37 GB
Профиль [ЛС]
Показать сообщения:    

Текущее время: 25-Май 09:01

Часовой пояс: UTC ± 0



Вы не можете начинать темы
Вы не можете отвечать на сообщения
Вы не можете редактировать свои сообщения
Вы не можете удалять свои сообщения
Вы не можете голосовать в опросах
Вы не можете прикреплять файлы к сообщениям
Вы можете скачивать файлы