Статистика раздачи
Размер:  1,36 GB   |    Зарегистрирован:  2 месяца 16 дней   |    Скачан:  0 раз

Полного источника не было: Никогда

 
     
 
 

Гость ®

Пол:
Не указан

Долина смерти / Death Valley
Страна: США
Жанр: триллер, криминал
Год выпуска: 1982
Продолжительность: 01:28:06
Перевод: Авторский (одноголосый закадровый) Юрий Товбин
Субтитры: нет
Режиссер: Дик Ричардс / Dick Richards
В ролях: Пол Ле Мэт, Кэтрин Хикс, Стивен МакХэтти, Уилфорд Бримли, Питер Биллингсли, Эдвард Херрманн, Джек О’Лири, Мэри Стилсмит
Описание: Билли вместе с матерью Салли, которая только что развелась с мужем, и ее новым другом Майком едет в долину смерти в Аризоне навестить бабушку. Они останавливаются у автозаправочной станции в долине, наполненной заброшенными шахтами. Билли решает прогуляться в близлежащем лесу и находит три расчлененных трупа подростков. Билли в ужасе убегает и наталкивается на хижину. Но едва он открывает дверь, изнутри выскакивает Майк и делает ему выговор. Билли едва успевает поднять с пола какое-то ожерелье. Когда они приезжают в бабушкин городок, он относит его местному шерифу. Убийца считает, что Билли знает слишком много, поэтому его нужно убрать...
Сэмпл: http://multi-up.com/1242159
Качество видео: BDRip (Исходник BDRemux 1080p)
Формат видео: AVI
Видео: XviD 73, 704x400, (16:9), 23,976 fps, 2014 Кбит/с, 8 бит, 0.29 bit/pixel
Аудио: Русский (АС3, 2 ch (Front: L R), 48,0 KHz, 192 Kbps)

MediaInfo

Общее
Полное имя : D:\Фильмы на трекер\Долина смерти (триллер, криминал 1982 год).avi
Формат : AVI
Формат/Информация : Audio Video Interleave
Размер файла : 1,36 Гбайт
Продолжительность : 1 ч. 28 м.
Общий поток : 2215 Кбит/сек
Программа кодирования : VirtualDubMod 1.5.10.3 | www.virtualdub-fr.org || (build 2550/release)
Библиотека кодирования : VirtualDubMod build 2550/release
Видео
Идентификатор : 0
Формат : MPEG-4 Visual
Профиль формата : Advanced Simple@L5
Параметр BVOP формата : 2
Параметр QPel формата : Нет
Параметр GMC формата : Без точки перехода
Параметр матрицы формата : Выборочная
Идентификатор кодека : XVID
Идентификатор кодека/Подсказка : XviD
Продолжительность : 1 ч. 28 м.
Битрейт : 2014 Кбит/сек
Ширина : 704 пикселя
Высота : 400 пикселей
Соотношение сторон : 16:9
Частота кадров : 23,976 (23976/1000) кадра/сек
Цветовое пространство : YUV
Субдискретизация насыщенности : 4:2:0
Битовая глубина : 8 бит
Тип развёртки : Прогрессивная
Метод сжатия : С потерями
Бит/(Пиксели*Кадры) : 0.298
Размер потока : 1,24 Гбайт (91%)
Библиотека кодирования : XviD 73
Аудио
Идентификатор : 1
Формат : AC-3
Формат/Информация : Audio Coding 3
Расширение режима : CM (complete main)
Параметр Endianness формата : Big
Идентификатор кодека : 2000
Продолжительность : 1 ч. 28 м.
Вид битрейта : Постоянный
Битрейт : 192 Кбит/сек
Каналы : 2 канала
Расположение каналов : Front: L R
Частота : 48,0 КГц
Частота кадров : 31,250 кадров/сек (1536 spf)
Метод сжатия : С потерями
Размер потока : 121 Мбайт (9%)
Выравнивание : Разделение по промежуткам
Продолжительность промежутка : 42 мс. (1,00 видеокадр)
Время предзагрузки промежутка : 500 мс.

Скриншот c названием фильма

Скриншоты

[cybertorrent.ru].t6960.torrent 
Торрент: Зарегистрирован [ 2019-09-27 16:26 ] · 19FA4057E61F601D47AA5EA4179D3867749F2857

Скачать .torrent

Скачать

14 KB

Статус: проверено
Скачан: 0 раз
Размер: 1,36 GB
terms.php
Показать сообщения:    

Текущее время: 14-Дек 09:02

Часовой пояс: UTC ± 0



Вы не можете начинать темы
Вы не можете отвечать на сообщения
Вы не можете редактировать свои сообщения
Вы не можете удалять свои сообщения
Вы не можете голосовать в опросах
Вы не можете прикреплять файлы к сообщениям
Вы можете скачивать файлы