Статистика раздачи
Размер:  15,01 GB   |    Зарегистрирован:  2 месяца 11 дней   |    Скачан:  0 раз
Сидов:  6  [  0 KB/s  ]   Личеров:  1  [  0 KB/s  ]  
 
     
 
 

Гость ®

Пол:
Не указан

Стилет-1,2
Год выпуска: 2003-2004
Производство: Кинокомпания "МакДос" при участии Кинокомпании "ЛУЧ"
Жанр: детектив, криминальный фильм
Продолжительность: 22 x ~ 00:47:00
Субтитры: Нет
Режиссёр: Николай Досталь, Михаил Туманишвили
В ролях: Дмитрий Щербина, Дарья Досталь, Александр Дьяченко, Юрий Степанов, Карина Золотова, Сергей Горобченко, Юрий Дуванов, Надежда Маркина, Максим Литовченко, Николай Мерзликин, Вячеслав Жолобов, Майкл Ферраро, Светлана Варецкая, Даниил Константинов (II), Денис Константинов (II), Владимир Кравченко (III), Дмитрий Бобров, Юрий Петров (II), Андрей Бадин, Юрий Цурило, Константин Степанов, Елена Коренева, Павел Деревянко, Тагир Рахимов, Андрей Ташков, Дмитрий Новиков, Ольга Карпович, Алексей Шевченков, Грегори-Саид Багов, Ксения Кузнецова, Феликс Антипов, Екатерина Жукова-Чумаченко, Тимофей Трибунцев, Арсен Петросян, Самвел Асатрян, Людмила Ларионова, Борис Эстрин, Марина Чуракова, Виктор Запорожский, Анатолий Горячев, Светлана Смехнова, Ольга Павловец, Александр Домогаров, Сергей Векслер, Сергей Угрюмов
Описание:
Стилет: Остросюжетный детективный сериал "Стилет" основан на произведениях Рoмана Канушкина. Детективная интрига связывает в один узел различные по жанру сюжетные линии этой истории: трагедию, мелодраму, боевик, триллер. Основные персонажи - не пассивные наблюдатели, а активные фигуры, стремящиеся влиять на ход событий, подчинять их своей воле. Каждый хочет выйти из этой схватки победителем, тем более, что ставка предельно высока - жизнь. Все герои взяты из современной жизни, в которой, как известно, намешано все: успех, деньги, зависть, предательство, убийство из-за угла, теневой бизнес, криминал, коррупция, ложь… Но есть и любовь, и дружба, и порядочность, и честь. Итак, действие фильма происходит в наши дни. Главного героя зовут Игнат Воронов по кличке Ворон, он же Стилет. Его можно назвать исключительно положительным героем – он выступает на стороне правды и справедливости. Но это отнюдь не делает его сторонником закона. Да и как ему быть на стороне закона, когда целью жизни становится месть тем людям, из-за которых погибла его возлюбленная. Стилет проникает в криминальную среду, устроившись водителем в охранное агентство. И на первый же бандитской “разборке” показывает себя блестящим стратегом и бойцом высокого класса - в одиночку уложил трех вооруженных омоновцев...
Стилет-2: Продолжение одноименного сериала, герой которого Игнат Воронов по кличке Стилет, берется раскрыть преступление - убийство крупного бизнесмена. За громким убийством следует гибель известного журналиста. Смертельная опасность грозит всем, кто подходит слишком близко, но в этом и мастерство, чтобы поразить противников на ближней дистанции, и в этом мастерстве Стилету нет равных.
Реклама: Нет
Сэмпл: http://multi-up.com/1242223
Качество: DVDRip-AVC, WEBRip-AVC
Формат: MKV
Видео кодек: H.264
Аудио кодек: AC3
Видео: MPEG-4 (AVC), ~ 704x572@750x572, ~ 720x576@768x576, 25 fps, ~ 1800 kbps, ~ 0.17 bit/pixel
Аудио: AC3, 48.0 kHz, 2 ch, 192 Kbps

MI

General
Unique ID : 204156662760564456711298202972866657149 (0x9997249CACD999EDBD8A0A61846ABB7D)
Complete name : Стилет (01 сер.).mkv
Format : Matroska
Format version : Version 2
File size : 726 MiB
Duration : 50 min 54 s
Overall bit rate : 1 994 kb/s
Encoded date : UTC 2019-09-26 11:12:43
Writing application : mkvmerge v7.8.0 ('River Man') 32bit built on Apr 3 2015 12:11:22
Writing library : libebml v1.3.1 + libmatroska v1.4.2
Video
ID : 1
Format : AVC
Format/Info : Advanced Video Codec
Format profile : High@L3.1
Format settings : CABAC / 6 Ref Frames
Format settings, CABAC : Yes
Format settings, Reference : 6 frames
Codec ID : V_MPEG4/ISO/AVC
Duration : 50 min 54 s
Bit rate : 1 800 kb/s
Width : 704 pixels
Height : 572 pixels
Display aspect ratio : 4:3
Original display aspect rat : 4:3
Frame rate mode : Constant
Frame rate : 25.000 FPS
Color space : YUV
Chroma subsampling : 4:2:0
Bit depth : 8 bits
Scan type : Progressive
Bits/(Pixel*Frame) : 0.179
Stream size : 642 MiB (88%)
Writing library : x264 core 157 r2935 545de2f
Encoding settings : cabac=1 / ref=6 / deblock=1:0:0 / analyse=0x3:0x113 / me=umh / subme=8 / psy=1 / psy_rd=1.00:0.00 / mixed_ref=1 / me_range=24 / chroma_me=1 / trellis=1 / 8x8dct=1 / cqm=0 / deadzone=21,11 / fast_pskip=1 / chroma_qp_offset=-2 / threads=4 / lookahead_threads=1 / sliced_threads=0 / nr=0 / decimate=1 / interlaced=0 / bluray_compat=0 / stitchable=1 / constrained_intra=0 / bframes=6 / b_pyramid=2 / b_adapt=1 / b_bias=0 / direct=3 / weightb=1 / open_gop=0 / weightp=2 / keyint=250 / keyint_min=25 / scenecut=40 / intra_refresh=0 / rc_lookahead=40 / rc=2pass / mbtree=1 / bitrate=1800 / ratetol=1.0 / qcomp=0.60 / qpmin=0 / qpmax=69 / qpstep=4 / cplxblur=20.0 / qblur=0.5 / ip_ratio=1.40 / aq=1:1.00
Default : Yes
Forced : No
Audio
ID : 2
Format : AC-3
Format/Info : Audio Coding 3
Commercial name : Dolby Digital
Codec ID : A_AC3
Duration : 50 min 54 s
Bit rate mode : Constant
Bit rate : 192 kb/s
Channel(s) : 2 channels
Channel layout : L R
Sampling rate : 48.0 kHz
Frame rate : 31.250 FPS (1536 SPF)
Bit depth : 16 bits
Compression mode : Lossy
Stream size : 69.9 MiB (10%)
Service kind : Complete Main
Default : Yes
Forced : No

Скриншоты

Предыдущие и альтернативные раздачи
[cybertorrent.ru].t6965.torrent 
Торрент: Зарегистрирован [ 2019-09-27 16:26 ] · CFD740A7FCE2156D7B56EE4094520206FCFB212F

Скачать .torrent

Скачать

40 KB

Статус: проверено
Скачан: 0 раз
Размер: 15,01 GB
terms.php
Показать сообщения:    

Текущее время: 09-Дек 15:31

Часовой пояс: UTC ± 0



Вы не можете начинать темы
Вы не можете отвечать на сообщения
Вы не можете редактировать свои сообщения
Вы не можете удалять свои сообщения
Вы не можете голосовать в опросах
Вы не можете прикреплять файлы к сообщениям
Вы можете скачивать файлы