Статистика раздачи
Размер:  1,35 GB   |    Зарегистрирован:  3 месяца 12 дней   |    Скачан:  0 раз

Полного источника не было: Никогда

 
   
 
 

lopster ®

Пол:
Не указан
Стаж:
3 месяца 12 дней
Сообщений:
612

Свадьба
Страна: Россия, Франция, Германия, Италия
Жанр: мелодрама, трагикомедия
Год выпуска: 2000
Продолжительность: 01:48:47 (00:53:00 + 00:55:47)
Режиссер: Павел Лунгин
В ролях: Марат Башаров, Мария Миронова, Андрей Панин, Александр Семчев, Владимир Симонов, Александр Робак, Мария Голубкина, Наталья Коляканова, Елена Новикова, Владимир Кашпур, Владимир Сальников, Галина Петрова, Марина Голуб, Илья Рутберг, Надежда Маркина, Павел Поймалов, Валерий Семин, Елена Верховская, Олег Есауленко, Алексей Миронов, Алексей Салпанов, Михаил Матвеев, Даниил Белых, Андрей Бронников, Нина Салкова, Кирилл Дайнеко, Анна Штукатурова, Александр Вешриков, Любовь Спирихина, Янис Зариньш, Ильхам Ханбудагов, Людмила Егорова, Игорь Небольсин, Владимир Епископосян, Валерий Маркин
Описание: Молодая девушка Таня возвращается из Москвы после пятилетнего отсутствия в родной небольшой шахтерский городок Липки. Всё вокруг ей знакомо с детства: дома и их жители, подруги и простой парень Мишка, любящий её ещё со школы. На танцах, хлебнув водки для храбрости, Таня пообещала Мишке подбросить монетку и, если выпадет орёл, выйти за него замуж…
Доп. информация: В Каннах Лунгин получил за этот фильм свой первый приз -"За лучший актерский ансамбль". И не случайно - в фильме играют действительно прекрасные актеры!
Файл разделен на две части по 700 МБ.
Качество видео: DVDRip
Формат видео: AVI
Видео:
1 часть - 640x384 (1.67:1), 25 fps, DivX 5.0.2, 1702 kbps avg, 0.28 bit/pixel
2 часть - 640x384 (1.67:1), 25 fps, DivX 5.0.2, 1601 kbps avg, 0.26 bit/pixel
Аудио:
1 часть - 32 kHz, MPEG Layer 3, 2 ch, 112 kbps avg, Variable
2 часть - 32 kHz, MPEG Layer 3, 2 ch, 112 kbps avg, Constant

MI

Полное имя : Svadba\Svadba.CD1of2.(DVDrip.DivX.rus).avi
Формат : AVI
Формат/Информация : Audio Video Interleave
Размер файла : 692 Мбайт
Продолжительность : 52 м.
Режим общего битрейта : Переменный
Общий поток : 1825 Кбит/сек
Программа кодирования : Nandub v1.0rc2
Библиотека кодирования : Nandub build 1853/release
Видео
Идентификатор : 0
Формат : MPEG-4 Visual
Параметр BVOP формата : 1
Параметр QPel формата : Нет
Параметр GMC формата : Без точки перехода
Параметр матрицы формата : Default (H.263)
Режим смешивания : Сжатый битовый поток
Идентификатор кодека : DX50
Идентификатор кодека/Подсказка : DivX 5
Продолжительность : 52 м.
Битрейт : 1702 Кбит/сек
Ширина : 640 пикселей
Высота : 384 пикселя
Соотношение сторон : 1,667
Частота кадров : 25,000 кадров/сек
Цветовое пространство : YUV
Субдискретизация насыщенности : 4:2:0
Битовая глубина : 8 бит
Тип развёртки : Прогрессивная
Метод сжатия : С потерями
Бит/(Пиксели*Кадры) : 0.277
Размер потока : 645 Мбайт (93%)
Библиотека кодирования : DivX 5.0.2 (UTC 2002-05-16)
Аудио
Идентификатор : 1
Формат : MPEG Audio
Версия формата : Version 1
Профиль формата : Layer 3
Режим : Joint stereo
Расширение режима : MS Stereo
Идентификатор кодека : 55
Идентификатор кодека/Подсказка : MP3
Продолжительность : 52 м.
Вид битрейта : Переменный
Битрейт : 112 Кбит/сек
Каналы : 2 канала
Частота : 32,0 КГц
Метод сжатия : С потерями
Размер потока : 42,8 Мбайт (6%)
Выравнивание : Соединение по промежуткам
Продолжительность промежутка : 36 мс. (0,90 видеокадр)
Время предзагрузки промежутка : 990 мс.
Библиотека кодирования : LAME3.92
Настройки программы : -m j -V 4 -q 2 -lowpass 9.4 --abr 112
Полное имя : Svadba\Svadba.CD2of2.(DVDrip.DivX.rus).avi
Формат : AVI
Формат/Информация : Audio Video Interleave
Размер файла : 688 Мбайт
Продолжительность : 55 м.
Общий поток : 1724 Кбит/сек
Программа кодирования : Nandub v1.0rc2
Библиотека кодирования : Nandub build 1853/release
Видео
Идентификатор : 0
Формат : MPEG-4 Visual
Параметр BVOP формата : 1
Параметр QPel формата : Нет
Параметр GMC формата : Без точки перехода
Параметр матрицы формата : Default (H.263)
Режим смешивания : Сжатый битовый поток
Идентификатор кодека : DX50
Идентификатор кодека/Подсказка : DivX 5
Продолжительность : 55 м.
Битрейт : 1601 Кбит/сек
Ширина : 640 пикселей
Высота : 384 пикселя
Соотношение сторон : 1,667
Частота кадров : 25,000 кадров/сек
Цветовое пространство : YUV
Субдискретизация насыщенности : 4:2:0
Битовая глубина : 8 бит
Тип развёртки : Прогрессивная
Метод сжатия : С потерями
Бит/(Пиксели*Кадры) : 0.261
Размер потока : 639 Мбайт (93%)
Библиотека кодирования : DivX 5.0.2 (UTC 2002-05-16)
Аудио
Идентификатор : 1
Формат : MPEG Audio
Версия формата : Version 1
Профиль формата : Layer 3
Режим : Joint stereo
Расширение режима : MS Stereo
Идентификатор кодека : 55
Идентификатор кодека/Подсказка : MP3
Продолжительность : 55 м.
Вид битрейта : Постоянный
Битрейт : 112 Кбит/сек
Каналы : 2 канала
Частота : 32,0 КГц
Метод сжатия : С потерями
Размер потока : 45,0 Мбайт (7%)
Выравнивание : Соединение по промежуткам
Продолжительность промежутка : 36 мс. (0,90 видеокадр)
Время предзагрузки промежутка : 964 мс.
Библиотека кодирования : LAME3.92

Скриншоты

ВНИМАНИЕ! НА АППАРАТНЫХ DVD-ПЛЕЕРАХ ПРОБЛЕМЫ С ВОСПРОИЗВЕДЕНИЕМ ЗВУКА.
[cybertorrent.ru].t7.torrent 
Торрент: Зарегистрирован [ 2018-02-15 13:57 ] · C23EA1A26C4537E4E11F0928384343782C85B879

Скачать .torrent

Скачать

14 KB

Статус: проверено
Скачан: 0 раз
Размер: 1,35 GB
Профиль [ЛС]
Показать сообщения:    

Текущее время: 28-Май 03:15

Часовой пояс: UTC ± 0



Вы не можете начинать темы
Вы не можете отвечать на сообщения
Вы не можете редактировать свои сообщения
Вы не можете удалять свои сообщения
Вы не можете голосовать в опросах
Вы не можете прикреплять файлы к сообщениям
Вы можете скачивать файлы