Статистика раздачи
Размер:  1,36 GB   |    Зарегистрирован:  3 месяца 8 дней   |    Скачан:  0 раз

Полного источника не было: Никогда

 
   
 
 

lopster ®

Пол:
Не указан
Стаж:
3 месяца 8 дней
Сообщений:
612

Игра в шиндай
Год выпуска: 2006
Жанр: Триллер, Драма
Продолжительность: 01:30:53
Режиссер: Aндpeй Paзумoвcкий
В ролях: Валерий Баринов, Виктор Гвоздицкий, Юлия Маврина, Саид Багов, Юрий Чурсин, Наталия Курдюбова, Наталья Коляканова
Описание: Компания, собравшаяся на вечеринку в загородном доме, намерена "развести на деньги" специально приглашенного олигарха. Его знакомят с юной красоткой, чтобы был податливее. И кто же мог предположить, что именно молодые (и, казалось бы, циничные) ребята окажутся намного честнее и благороднее взрослых. А игра в шиндай - старинная японская забава - станет для собравшихся не столько развлечением, сколько способом выяснить запутанные отношения между собой.
Все раздачи фильма: Игра в шиндай
Качество: DVDRip
Формат: AVI
Видео кодек: XviD
Аудио кодек: AC3
Видео: XVID 720x544 25.00fps 1695Kbps
Аудио: Dolby AC3 48000Hz 6ch 448Kbps

MI

Код:Общее
Полное имя : C:\otkat\Видео\Игра в шиндай\Igra.v.shindaj.2006.XviD.DVDRip[torrents.ru].avi
Формат : AVI
Формат/Информация : Audio Video Interleave
Размер файла : 1,36 Гбайт
Продолжительность : 1 ч. 30 м.
Общий поток : 2150 Кбит/сек
Программа кодирования : VirtualDubMod 1.5.4.1 (build 2178/release)
Библиотека кодирования : VirtualDubMod build 2178/release
Видео
Идентификатор : 0
Формат : MPEG-4 Visual
Профиль формата : Advanced Simple@L5
Параметр BVOP формата : 1
Параметр QPel формата : Нет
Параметр GMC формата : Без точки перехода
Параметр матрицы формата : Выборочная
Идентификатор кодека : XVID
Идентификатор кодека/Подсказка : XviD
Продолжительность : 1 ч. 30 м.
Битрейт : 1695 Кбит/сек
Ширина : 720 пикселей
Высота : 544 пикселя
Соотношение сторон : 4:3
Частота кадров : 25,000 кадров/сек
Цветовое пространство : YUV
Субдискретизация насыщенности : 4:2:0
Битовая глубина : 8 бит
Тип развёртки : Прогрессивная
Метод сжатия : С потерями
Бит/(Пиксели*Кадры) : 0.173
Размер потока : 1,08 Гбайт (79%)
Библиотека кодирования : XviD 1.2.0.dev47 (UTC 2006-11-01)
Аудио
Идентификатор : 1
Формат : AC-3
Формат/Информация : Audio Coding 3
Расширение режима : CM (complete main)
Параметр Endianness формата : Big
Идентификатор кодека : 2000
Продолжительность : 1 ч. 30 м.
Вид битрейта : Постоянный
Битрейт : 448 Кбит/сек
Каналы : 6 каналов
Расположение каналов : Front: L C R, Side: L R, LFE
Частота : 48,0 КГц
Частота кадров : 31,250 кадров/сек (1536 spf)
Метод сжатия : С потерями
Размер потока : 291 Мбайт (21%)
Выравнивание : Разделение по промежуткам
Продолжительность промежутка : 96 мс. (2,40 видеокадра)
Время предзагрузки промежутка : 96 мс.
Язык : Russian

Скриншоты


[cybertorrent.ru].t70.torrent 
Торрент: Зарегистрирован [ 2018-02-15 13:57 ] · 8DD594CB790D18662687AB3135CCD3208480A9BF

Скачать .torrent

Скачать

14 KB

Статус: проверено
Скачан: 0 раз
Размер: 1,36 GB
Профиль [ЛС]
Показать сообщения:    

Текущее время: 23-Май 16:28

Часовой пояс: UTC ± 0



Вы не можете начинать темы
Вы не можете отвечать на сообщения
Вы не можете редактировать свои сообщения
Вы не можете удалять свои сообщения
Вы не можете голосовать в опросах
Вы не можете прикреплять файлы к сообщениям
Вы можете скачивать файлы