Статистика раздачи
Размер:  1,14 GB   |    Зарегистрирован:  2 месяца 10 дней   |    Скачан:  0 раз
Сидов:  29  [  0 KB/s  ]   Личеров:  1  [  0 KB/s  ]  
 
     
 
 

Гость ®

Пол:
Не указан

Маруся. Трудные взрослые
Год выпуска: 2019
Производство: NRG FILM
Жанр: мелодрама
Продолжительность: ~00:46:00 серия
Субтитры: нет
Режиссёр: Владимир Янковский
В ролях: Анна Большова, Николай Иванов, Вероника Волоха, Максим Кречетов, Валентина Талызина, Сергей Власов, Оксана Лесная, Ольга Рептух
Описание: Когда люди женаты не один год, когда в семье уже есть приемный ребенок, а затем рождается свой, трудностей не избежать. Анне кажется, что Никита к ней охладел, что у него есть другая. Семейная лодка дала течь, увлеченные взаимными обвинениями, взрослые упускают тот момент, когда 7-летняя Маруся начинает думать, что теперь все внимание и любовь взрослых будут отданы маленькому Павлу, что ей больше нет места в этой семье.

Реклама: Нет.
Кинопоиск
Все раздачи сериала
Sample
Качество: WEBRip - Files-x
Формат: AVI
Видео кодек: XviD
Аудио кодек: AC3
Видео: 720x400 (1.80:1), 25 fps, XviD ~1600 kbps avg, 0.222 bit/pixel
Аудио: 48.0 kHz, AC3 Dolby Digital, 2/0 (L,R) ch, ~ 192 kbps

MI

General
Complete name : D:\Маруся. Трудные взрослые.2019. WEB-DLRip. Files-x\01. Маруся. Трудные взрослые.2019. WEB-DLRip. Files-x.avi
Format : AVI
Format/Info : Audio Video Interleave
File size : 593 MiB
Duration : 46 min 1 s
Overall bit rate : 1 802 kb/s
Writing application : VirtualDubMod 1.5.10.3 | www.virtualdub-fr.org || (build 2550/release)
Writing library : VirtualDubMod build 2550/release
Video
ID : 0
Format : MPEG-4 Visual
Format profile : Advanced Simple@L5
Format settings : BVOP1 / Custom Matrix
Format settings, BVOP : 1
Format settings, QPel : No
Format settings, GMC : No warppoints
Format settings, Matrix : Custom
Codec ID : XVID
Codec ID/Hint : XviD
Duration : 46 min 1 s
Bit rate : 1 600 kb/s
Width : 720 pixels
Height : 400 pixels
Display aspect ratio : 16:9
Frame rate : 25.000 FPS
Color space : YUV
Chroma subsampling : 4:2:0
Bit depth : 8 bits
Scan type : Progressive
Compression mode : Lossy
Bits/(Pixel*Frame) : 0.222
Stream size : 527 MiB (89%)
Writing library : XviD 73
Audio
ID : 1
Format : AC-3
Format/Info : Audio Coding 3
Codec ID : 2000
Duration : 46 min 1 s
Bit rate mode : Constant
Bit rate : 192 kb/s
Channel(s) : 2 channels
Channel positions : Front: L R
Sampling rate : 48.0 kHz
Frame rate : 31.250 FPS (1536 SPF)
Bit depth : 16 bits
Compression mode : Lossy
Stream size : 63.2 MiB (11%)
Alignment : Split accross interleaves
Interleave, duration : 40 ms (1.00 video frame)
Interleave, preload duratio : 500 ms
Service kind : Complete Main

Скриншоты


[cybertorrent.ru].t7008.torrent 
Торрент: Зарегистрирован [ 2019-09-28 16:45 ] · 43F2B75D0CD1CE7235D0D8F457D067741288DD8C

Скачать .torrent

Скачать

12 KB

Статус: проверено
Скачан: 0 раз
Размер: 1,14 GB
terms.php
Показать сообщения:    

Текущее время: 09-Дек 15:13

Часовой пояс: UTC ± 0



Вы не можете начинать темы
Вы не можете отвечать на сообщения
Вы не можете редактировать свои сообщения
Вы не можете удалять свои сообщения
Вы не можете голосовать в опросах
Вы не можете прикреплять файлы к сообщениям
Вы можете скачивать файлы