Статистика раздачи
Размер:  2,34 GB   |    Зарегистрирован:  2 месяца 10 дней   |    Скачан:  0 раз
Сидов:  162  [  0 KB/s  ]   Личеров:  9  [  0 KB/s  ]  
 
     
 
 

Гость ®

Пол:
Не указан

Агата и сыск. Королева брильянтов
Год выпуска: 2019
Производство: Россия, ООО «Зебра»
Жанр: Детектив, исторический, экранизация
Продолжительность: 4 x ~ 00:45:00
Субтитры: Отсутствуют
Режиссёр: Владимир Койфман
В ролях: Дарья Ленда, Константин Крюков, Александр Половцев, Борис Хвошнянский, Егор Бакулин, Константин Шелестун, Светлана Обидина, Татьяна Полонская, Василий Рукша, Вера Плешанова
Описание: По мотивам одноименного романа Антона Чижа. Конец 19 века. Она – начинающая мошенница. Юная, обворожительная, легко меняющая внешность. Он – проницательный, нестандартно мыслящий сыщик. Ее фамилия – Керн. Его – Пушкин. Совпадение или знак судьбы? Что толкнуло молодую дворянку на путь преступления, и как далеко сей путь может ее завести? Где ловкий сыщик устроит мошеннице западню и знакомо ли ему милосердие? Как завершится их поединок, в который, помимо авантюрной интриги, вплетаются убийства, мистика и, конечно, любовь?
Автор релиза:
Премьера: 28 сентября 2019 года (ТВЦ)
Реклама: Отсутствует
Сэмпл: http://multi-up.com/1242279
Качество: SATRip
Формат: AVI
Видео кодек: XviD
Аудио кодек: MP3
Видео: XviD, 720x400, ~ 1700 Кбит/с, 0.235 bit/pixel
Аудио: МР3, 2 ch, 192 Кбит/с

MI

Общее
Полное имя : D:\Агата.и.сыск.Королева.брильянтов.XviD.2019.SATRip.7turza\01.Агата.и.сыск.Королева.брильянтов.7turza
Формат : AVI
Формат/Информация : Audio Video Interleave
Размер файла : 602 Мбайт
Продолжительность : 44 м. 18 с.
Общий поток : 1898 Кбит/сек
Программа кодирования : Lavf58.20.100
Библиотека кодирования : VirtualDub build 35576/release
Видео
Идентификатор : 0
Формат : MPEG-4 Visual
Профиль формата : Advanced Simple@L5
Настройки формата : BVOP1
Параметр BVOP формата : 1
Параметр QPel формата : Нет
Параметр GMC формата : Без точки перехода
Параметр матрицы формата : Default (H.263)
Идентификатор кодека : XVID
Идентификатор кодека/Подсказка : XviD
Продолжительность : 44 м. 18 с.
Битрейт : 1694 Кбит/сек
Ширина : 720 пикселей
Высота : 400 пикселей
Соотношение сторон : 1,85:1
Частота кадров : 25,000 кадров/сек
Цветовое пространство : YUV
Субдискретизация насыщенности : 4:2:0
Битовая глубина : 8 бит
Тип развёртки : Прогрессивная
Бит/(Пиксели*Кадры) : 0.235
Размер потока : 537 Мбайт (89%)
Библиотека кодирования : XviD 67
Аудио
Идентификатор : 1
Формат : MPEG Audio
Версия формата : Version 1
Профиль формата : Layer 3
Настройки формата : Joint stereo
Идентификатор кодека : 55
Идентификатор кодека/Подсказка : MP3
Продолжительность : 44 м. 18 с.
Вид битрейта : Постоянный
Битрейт : 192 Кбит/сек
Каналы : 2 канала
Частота : 48,0 КГц
Размер потока : 60,8 Мбайт (10%)
Выравнивание : Соединение по промежуткам
Продолжительность промежутка : 24 мс. (0,60 видеокадр)
Время предзагрузки промежутка : 504 мс.
Библиотека кодирования : LAME

Скриншоты

Предыдущие и альтернативные раздачи
[cybertorrent.ru].t7011.torrent 
Торрент: Зарегистрирован [ 2019-09-28 16:45 ] · 411B250CF195CF6E4151C281082CC668097EAEC3

Скачать .torrent

Скачать

13 KB

Статус: проверено
Скачан: 0 раз
Размер: 2,34 GB
terms.php
Показать сообщения:    

Текущее время: 09-Дек 15:00

Часовой пояс: UTC ± 0



Вы не можете начинать темы
Вы не можете отвечать на сообщения
Вы не можете редактировать свои сообщения
Вы не можете удалять свои сообщения
Вы не можете голосовать в опросах
Вы не можете прикреплять файлы к сообщениям
Вы можете скачивать файлы