Статистика раздачи
Размер:  440 MB   |    Зарегистрирован:  21 день   |    Скачан:  0 раз

Полного источника не было: Никогда

   
 

Kennet ®

Пол:
Мужской
Стаж:
2 месяца 21 день
Сообщений:
34

Откуда: Россия

Creepshow / Калейдоскоп ужасов
Год выпуска: 2019
Страна: США
Жанр: ужасы
Продолжительность: 00:45:00
Перевод: Субтитры Antonio
Режиссёр: Дэвид Брукнер, Джон Харрисон, Роксанна Бенжамин
В ролях: Ханна Бэйрфут, Брюс Дэвисон, Логан Аллен, Дэвид Аркетт, Эдриенн Барбо, Тобин Белл, Биг Бой, Нельсон Бонилья, Трэйси Боннер
Описание: Потрясающий сборник пугающих хоррор-историй, которые обещают вызвать ужас даже у самых смелых зрителей. Авторы сценария пытаются передать атмосферу кошмара, созданного в оригинальном фильме тысяча девятьсот восемьдесят второго года. Некогда настоящие гении жанра Джордж Ромеро и Стивен Кинг подарили массовому зрителю билет в опасный мир, где главным врагом становится не только монстр, но и сознание человека, создающее ещё более угнетающую обстановку. Каждый новый эпизод - это две интереснейшие истории хоррор-жанра. Всего первый сезон включит в себя шесть увлекательных и интригующих эпизодов.
Доп. информация:
Перевод: Antonio
Сэмпл: http://sendfile.su/1518760
Качество: WEB-DLRip-AVC
Формат: MKV
Видео: MPEG4 Video (H264) 720x400 23.976fps 1100Kbps
Аудио: AAC 48000Hz stereo 256Kbps
Субтитры: русские (отключаемые)
Реклама: отсутствует

MediaInfo

General
Unique ID : 10120736357550380311493425013026571291 (0x79D2ED3E98E38C18206E5A59EB9C41B)
Complete name : D:\TORRENTS\Калейдоскоп ужасов 400p\Creepshow.S01E01.mkv
Format : Matroska
Format version : Version 4
File size : 440 MiB
Duration : 45 min 51 s
Overall bit rate : 1 342 kb/s
Encoded date : UTC 2019-09-27 16:31:21
Writing application : mkvmerge v37.0.0 ('Leave It') 64-bit
Writing library : libebml v1.3.9 + libmatroska v1.5.2
Video
ID : 1
Format : AVC
Format/Info : Advanced Video Codec
Format profile : High@L3.1
Format settings : CABAC / 5 Ref Frames
Format settings, CABAC : Yes
Format settings, Reference fra : 5 frames
Codec ID : V_MPEG4/ISO/AVC
Duration : 45 min 51 s
Bit rate : 1 100 kb/s
Width : 720 pixels
Height : 400 pixels
Display aspect ratio : 16:9
Frame rate mode : Constant
Frame rate : 23.976 (24000/1001) FPS
Color space : YUV
Chroma subsampling : 4:2:0
Bit depth : 8 bits
Scan type : Progressive
Bits/(Pixel*Frame) : 0.159
Stream size : 356 MiB (81%)
Writing library : x264 core 152 r2851M ba24899
Encoding settings : cabac=1 / ref=5 / deblock=1:-1:-1 / analyse=0x3:0x113 / me=umh / subme=9 / psy=1 / psy_rd=1.00:0.15 / mixed_ref=1 / me_range=16 / chroma_me=1 / trellis=2 / 8x8dct=1 / cqm=0 / deadzone=21,11 / fast_pskip=1 / chroma_qp_offset=-3 / threads=12 / lookahead_threads=1 / sliced_threads=0 / nr=0 / decimate=1 / interlaced=0 / bluray_compat=0 / constrained_intra=0 / bframes=3 / b_pyramid=2 / b_adapt=2 / b_bias=0 / direct=3 / weightb=1 / open_gop=0 / weightp=2 / keyint=250 / keyint_min=23 / scenecut=40 / intra_refresh=0 / rc_lookahead=50 / rc=abr / mbtree=1 / bitrate=1100 / ratetol=1.0 / qcomp=0.60 / qpmin=0 / qpmax=69 / qpstep=4 / ip_ratio=1.40 / aq=1:1.00
Default : Yes
Forced : No
Audio
ID : 2
Format : AAC LC
Format/Info : Advanced Audio Codec Low Complexity
Codec ID : A_AAC-2
Duration : 45 min 51 s
Bit rate : 256 kb/s
Channel(s) : 2 channels
Channel layout : L R
Sampling rate : 48.0 kHz
Frame rate : 46.875 FPS (1024 SPF)
Compression mode : Lossy
Delay relative to video : -43 ms
Stream size : 84.0 MiB (19%)
Language : English
Default : Yes
Forced : No
Text
ID : 3
Format : UTF-8
Codec ID : S_TEXT/UTF8
Codec ID/Info : UTF-8 Plain Text
Duration : 44 min 10 s
Bit rate : 54 b/s
Count of elements : 391
Stream size : 17.6 KiB (0%)
Title : Antonio
Language : Russian
Default : Yes
Forced : Yes

Скриншоты

Предыдущие и альтернативные раздачи
[cybertorrent.ru].t7014.torrent 
Торрент: Зарегистрирован [ 2019-09-28 16:45 ] · 1EEF874DD1CF9526AE6C6840482F46B7D4EF0151

Скачать .torrent

Скачать

35 KB

Статус: проверено
Скачан: 0 раз
Размер: 440 MB
terms.php
Профиль ЛС
Показать сообщения:    

Текущее время: 20-Окт 05:56

Часовой пояс: UTC ± 0



Вы не можете начинать темы
Вы не можете отвечать на сообщения
Вы не можете редактировать свои сообщения
Вы не можете удалять свои сообщения
Вы не можете голосовать в опросах
Вы не можете прикреплять файлы к сообщениям
Вы можете скачивать файлы