Статистика раздачи
Размер:  2,14 GB   |    Зарегистрирован:  21 день   |    Скачан:  0 раз

Полного источника не было: Никогда

   
 

SotGE ®

Пол:
Не указан
Стаж:
5 месяцев 17 дней
Сообщений:
1

Восемнадцать лун
Жанр: драма
Год выпуска: 2002
Продолжительность: 01:32:08
Режиссёр: Ильдар Исламгулов
В ролях: Светлана Малюкова, Дмитрий Куповых, Иван Глубоков, Светлана Фатина, Дмитрий Рыбин, Наталья Крошкина, Елена Раплева, Олег Ефимов, Артем Гребенников, Геннадий Фомичев, Татьяна Косач-Брындина
Описание: Как возникает любовь? Куда заводит страсть? На что толкает ревность? Как разобраться в собственных чувствах - когда тебе уже 18, когда тебе только 18?
Главные герои этой драматической истории любви - старшеклассники, выпускники школы. Первая любовь, первая измена, первое чувство ревности и нежелание смириться с тем, что ты ничего не можешь изменить. Во внезапно образовавшемся любовном треугольнике страдают все его участники и совершают отчаянные безумные поступки. Главной героине приходится делать выбор: один - с детства знакомый, любящий и верный, будущее с ним предсказуемо и понятно, другой - внезапно возникший, нежный, открывший ей совершенно новый мир. Когда тебе 18 лет, выбор может оказаться не под силу... И тогда трагедия неизбежна...
Доп. информация: запись потока *.ts со спутника Astra 5B/2C 31.5° в.д., ремукс в *.mkv программой VideoReDo.
Качество видео: DVB
Формат видео: MKV
Видео: MPEG2 Video, 704(1024)x576 (16:9), 25,000 кадров/сек, 3135 Кбит/сек
Аудио: MPEG Audio, 48,0 КГц, 128 Кбит/сек, 2 канала

MediaInfo

Общее
Уникальный идентификатор : 74473881196992096040661545587063527122 (0x380725D561D154F8A66C392C3B4616D2)
Полное имя : D:\Torrent\ВОСЕМНАДЦАТЬ ЛУН (TVCi).mkv
Формат : Matroska
Версия формата : Version 2
Размер файла : 2,14 Гбайт
Продолжительность : 1 ч. 32 м.
Режим общего битрейта : Переменный
Общий поток : 3330 Кбит/сек
Программа кодирования : Lavf52.64.2
Библиотека кодирования : Lavf52.64.2
Видео
Идентификатор : 1
Формат : MPEG Video
Версия формата : Version 2
Профиль формата : Main@Main
Параметр BVOP формата : Да
Параметр матрицы формата : Выборочная
Параметр GOP формата : M=3, N=12
Структура изображения : Frame
Идентификатор кодека : V_MPEG2
Идентификатор кодека/Информация : MPEG 1 or 2 Video
Продолжительность : 1 ч. 32 м.
Вид битрейта : Переменный
Битрейт : 3135 Кбит/сек
Максимальный битрейт : 15,0 Мбит/сек
Ширина : 704 пикселя
Высота : 576 пикселей
Соотношение сторон : 16:9
Соотношение сторон в оригинале : 16:9
Режим частоты кадров : Постоянный
Частота кадров : 25,000 кадров/сек
Стандарт вещания : PAL
Цветовое пространство : YUV
Субдискретизация насыщенности : 4:2:0
Битовая глубина : 8 бит
Тип развёртки : Чересстрочная
Порядок развёртки : Верхнее поле первое
Метод сжатия : С потерями
Бит/(Пиксели*Кадры) : 0.309
Размер потока : 2,02 Гбайт (94%)
Default : Да
Forced : Нет
Аудио
Идентификатор : 2
Формат : MPEG Audio
Версия формата : Version 1
Профиль формата : Layer 2
Идентификатор кодека : A_MPEG/L2
Идентификатор кодека/Подсказка : MP2
Продолжительность : 1 ч. 32 м.
Вид битрейта : Постоянный
Битрейт : 128 Кбит/сек
Каналы : 2 канала
Частота : 48,0 КГц
Метод сжатия : С потерями
Задержка видео : 6 мс.
Размер потока : 84,4 Мбайт (4%)
Язык : English
Default : Да
Forced : Нет

Скриншот c названием фильма

[cybertorrent.ru].t7120.torrent 
Торрент: Зарегистрирован [ 2019-09-28 22:48 ] · D9C426D1E9EAA72EC71D0A9589E0E9CC4324AEEF

Скачать .torrent

Скачать

11 KB

Статус: проверено
Скачан: 0 раз
Размер: 2,14 GB
terms.php
Профиль ЛС
Показать сообщения:    

Текущее время: 20-Окт 05:56

Часовой пояс: UTC ± 0



Вы не можете начинать темы
Вы не можете отвечать на сообщения
Вы не можете редактировать свои сообщения
Вы не можете удалять свои сообщения
Вы не можете голосовать в опросах
Вы не можете прикреплять файлы к сообщениям
Вы можете скачивать файлы