Статистика раздачи
Размер:  1,41 GB   |    Зарегистрирован:  2 месяца 10 дней   |    Скачан:  1 раз

Полного источника не было: 1 месяц 28 дней

 
     
 
 

Гость ®

Пол:
Не указан

Распутница / Lady Libertine
Жанр: Эротика, мелодрама
Страна: Франция, США, Канада
Студия: Cannon Films, Cinépix, Gold Production, Playboy Productions Inc.
Год выпуска: 1984
Продолжительность: 01:24:40
Перевод: Авторский (одноголосый закадровый) - Антон Алексеев
Субтитры: нет
Оригинальная аудиодорожка: английский
Режиссер: Жерар Кикоин / Gérard Kikoïne
В ролях:
Кристофер Пирсон / Christopher Pearson ... Charles de Beaumont
Дженнифер Инч / Jennifer Inch ... Frank / Frances Holmes
Софи Фавьер / Sophie Favier ... Maud Collins
Ален Дюмаурье / Alain Dumaurier ... Comte Ricky von Harmstorf
Эммануэль Карсен / Emmanuel Karsen ... Jeffrey Brook
Эйприл Хайд / April Hyde ... Leslie
Элоиз Бон / Eloïse Beaune ... Miss Dundas
Джейн Вэл / Jane Val ... Mrs. Evans
Жак Ферри / Jacques Ferry ... Watson
Жорж Сен-Ив / Georges Saint-Yves ... Un homme ivre
Описание: По мотивам знаменитого викторианского эротического романа анонимного автора, который был выпущен под названием «Фрэнк и я» ("Frank and I") в 1902 году и приписывается Биллу Адлеру.
В 1880-х годах богатый молодой дворянин из Лондона Чарльз де Бомон - Чарли (Кристофер Пирсон), возвращаясь домой на лошади, встречает в пути бредущего в никуда юношу по имени Фрэнк (Дженнифер Инч). Он приглашает его в свой дом, где тому дают приют. Однажды Фрэнк провинился и его наказывают розгами, и тут Чарли понимает, что Фрэнк на самом деле – девушка Фрэнсис. Он влюбляется в неё и в дальнейшем пытается узнать её непростую историю…
Дополнительная информация:
Релиз:
Исходник найден в сети.
Автор рипа: pmv
Большое спасибо за:
- аудиодорожку с русской озвучкой - Shelena
- синхронизацию звуковой дорожки с советским дубляжом - pmv
* Не рекомендуется к просмотру зрителям моложе 18 лет.
IMDb = 4,4/10 (260) - https://www.imdb.com/title/tt0087287/
Кинопоиск = - (16) - https://www.kinopoisk.ru/film/124639/
ВНИМАНИЕ!!! РИП ФОРМАТА mkv (кодек H.264) ВОСПРОИЗВОДИТСЯ НЕ НА ВСЕХ БЫТОВЫХ ВИДЕОПЛЕЕРАХ!!!
ПРОСЬБА к СКАЧАВШИМ. НЕ УХОДИТЕ С РАЗДАЧИ, ПОМОГИТЕ ДРУГИМ СКАЧАТЬ!!!
Качество видео: HDRip-AVC
Формат видео: MKV
Видео: AVC (H264), 864x648 (4:3), 23.976 fps, 2000 kbps, 0.149 Bits/Pixel
Аудио #1: AC3, 48 KHz, stereo (2 ch), 192 kbps – русский
Аудио #2: AC3, 48 KHz, stereo (2 ch), 192 kbps - английский

MediaInfo

General
Unique ID : 191969767711727963206226441944104268877 (0x906C084BB6D9920A099E66410DED744D)
Complete name : D:\torrents\Lady Libertine (1984, rus_VO+eng).mkv
Format : Matroska
Format version : Version 4 / Version 2
File size : 1.41 GiB
Duration : 1 h 24 min
Overall bit rate : 2 384 kb/s
Encoded date : UTC 2019-09-26 09:55:30
Writing application : mkvmerge v37.0.0 ('Leave It') 64-bit
Writing library : libebml v1.3.9 + libmatroska v1.5.2
Video
ID : 1
Format : AVC
Format/Info : Advanced Video Codec
Format profile : High@L4.1
Format settings, CABAC : Yes
Format settings, RefFrames : 14 frames
Codec ID : V_MPEG4/ISO/AVC
Duration : 1 h 24 min
Bit rate : 2 000 kb/s
Width : 864 pixels
Height : 648 pixels
Display aspect ratio : 4:3
Frame rate mode : Constant
Frame rate : 23.976 (23976/1000) FPS
Color space : YUV
Chroma subsampling : 4:2:0
Bit depth : 8 bits
Scan type : Progressive
Bits/(Pixel*Frame) : 0.149
Stream size : 1.18 GiB (84%)
Writing library : x264 core 146 r2538 121396c
Encoding settings : cabac=1 / ref=14 / deblock=1:0:0 / analyse=0x3:0x133 / me=umh / subme=10 / psy=1 / psy_rd=1.00:0.00 / mixed_ref=1 / me_range=24 / chroma_me=1 / trellis=2 / 8x8dct=1 / cqm=0 / deadzone=21,11 / fast_pskip=1 / chroma_qp_offset=-2 / threads=48 / lookahead_threads=5 / sliced_threads=0 / nr=0 / decimate=1 / interlaced=0 / bluray_compat=0 / constrained_intra=0 / bframes=8 / b_pyramid=2 / b_adapt=2 / b_bias=0 / direct=3 / weightb=1 / open_gop=0 / weightp=2 / keyint=250 / keyint_min=23 / scenecut=40 / intra_refresh=0 / rc_lookahead=60 / rc=2pass / mbtree=1 / bitrate=2000 / ratetol=1.0 / qcomp=0.60 / qpmin=0 / qpmax=69 / qpstep=4 / cplxblur=20.0 / qblur=0.5 / ip_ratio=1.40 / aq=1:1.00
Language : English
Default : Yes
Forced : No
Audio #1
ID : 2
Format : AC-3
Format/Info : Audio Coding 3
Format settings, Endianness : Big
Codec ID : A_AC3
Duration : 1 h 24 min
Bit rate mode : Constant
Bit rate : 192 kb/s
Channel(s) : 2 channels
Channel positions : Front: L R
Sampling rate : 48.0 kHz
Frame rate : 31.250 FPS (1536 SPF)
Bit depth : 16 bits
Compression mode : Lossy
Stream size : 116 MiB (8%)
Language : Russian
Service kind : Complete Main
Default : Yes
Forced : No
Audio #2
ID : 3
Format : AC-3
Format/Info : Audio Coding 3
Format settings, Endianness : Big
Codec ID : A_AC3
Duration : 1 h 24 min
Bit rate mode : Constant
Bit rate : 192 kb/s
Channel(s) : 2 channels
Channel positions : Front: L R
Sampling rate : 48.0 kHz
Frame rate : 31.250 FPS (1536 SPF)
Bit depth : 16 bits
Compression mode : Lossy
Stream size : 116 MiB (8%)
Language : English
Service kind : Complete Main
Default : No
Forced : No

Скриншот c названием фильма

МОИ РАЗДАЧИ НА РУТРЕКЕРЕ: https://cybertorrent.ru/tracker.php?rid=27390064
[cybertorrent.ru].t7121.torrent 
Торрент: Зарегистрирован [ 2019-09-28 22:48 ] · 650CBB35C3A2680455E390C65D0C954E3F9D8E47

Скачать .torrent

Скачать

15 KB

Статус: проверено
Скачан: 1 раз
Размер: 1,41 GB
terms.php
Показать сообщения:    

Текущее время: 09-Дек 16:17

Часовой пояс: UTC ± 0



Вы не можете начинать темы
Вы не можете отвечать на сообщения
Вы не можете редактировать свои сообщения
Вы не можете удалять свои сообщения
Вы не можете голосовать в опросах
Вы не можете прикреплять файлы к сообщениям
Вы можете скачивать файлы