Статистика раздачи
Размер:  2,43 GB   |    Зарегистрирован:  2 месяца 10 дней   |    Скачан:  0 раз

Полного источника не было: Никогда

 
     
 
 

Гость ®

Пол:
Не указан

Три беглеца / Three Fugitives- Страна: США
Жанр: комедия
Год выпуска: 1989
Продолжительность: 01:36:19
Перевод: Профессиональный (многоголосый закадровый) 1 канал / СТС
Перевод 2: Профессиональный (многоголосый закадровый) НТВ+
Перевод 3: Профессиональный (двухголосый закадровый) Видеосервис
Перевод 4: Авторский (одноголосый закадровый) Михалёв
Субтитры: английские
Оригинальная аудиодорожка: английский
Режиссер: Франсис Вебер / Francis Veber
В ролях: Ник Нолти, Мартин Шорт, Джеймс Эрл Джонс, Алан Рак, Кеннет МакМиллан, Дэвид Арнотт, Брюс МакГилл
Описание: После пяти лет тюрьмы известный грабитель-рецидивист Лукас решил стать на праведный путь. Но этот путь оказался очень коротким - в первый же день свободы он становится заложником человека, доведённого до такой степени отчаяния, что ему остаётся только грабить банк. Невероятно? Полиция тоже не может этому поверить. Лукасу снова приходится бежать от полиции, да ещё со своим похитителем и его дочерью.
Сэмпл: http://sendfile.su/1518819

Качество видео: WEB-DLRip-AVC (Три беглеца 1989 WEB-DL 1080p)
Формат видео: MKV
Видео: x264, 1000x540 (1.85:1) 23,976 fps, ~2616 kbps, 0,202 bit/pixel
Аудио 1: 48 kHz, AC3 Dolby Digital, 2/0 (L,R), ~192 kbps avg | 1 канал / СТС
Аудио 2: 48 kHz, AC3 Dolby Digital, 2/0 (L,R), ~192 kbps avg | НТВ+
Аудио 3: 48 kHz, E-AC3 Dolby Digital, 2/0 (L,R), ~224 kbps avg | Английский
---------------------------------------отдельно---------------------------------------------------
Аудио 4: 48 kHz, AC3 Dolby Digital, 2/0 (L,R), ~192 kbps avg | Видеосервис
Аудио 5: 48 kHz, AC3 Dolby Digital, 2/0 (L,R), ~192 kbps avg | Михалёв
Формат субтитров: softsub (SRT)

MediaInfo

General
Unique ID : 13651986396750770983579779795427619120 (0xA4546E58D55E76295CEB0835EA57130)
Format : Matroska
Format version : Version 4 / Version 2
File size : 2.17 GiB
Duration : 1h 36mn
Overall bit rate : 3 227 Kbps
Encoded date : UTC 2019-09-28 14:14:30
Writing application : mkvmerge v37.0.0 ('Leave It') 64-bit
Writing library : libebml v1.3.9 + libmatroska v1.5.2
Video #1
ID : 1
Format : AVC
Format/Info : Advanced Video Codec
Format profile : High@L4.1
Format settings, CABAC : Yes
Format settings, ReFrames : 10 frames
Codec ID : V_MPEG4/ISO/AVC
Duration : 1h 36mn
Bit rate : 2 616 Kbps
Width : 1 000 pixels
Height : 540 pixels
Display aspect ratio : 1.85:1
Frame rate mode : Constant
Frame rate : 23.976 (24000/1001) fps
Color space : YUV
Chroma subsampling : 4:2:0
Bit depth : 8 bits
Scan type : Progressive
Bits/(Pixel*Frame) : 0.202
Stream size : 1.76 GiB (81%)
Writing library : x264 core 157 r2969 d4099dd
Encoding settings : cabac=1 / ref=10 / deblock=1:-3:-2 / analyse=0x3:0x133 / me=umh / subme=10 / psy=1 / psy_rd=1.00:0.00 / mixed_ref=1 / me_range=32 / chroma_me=1 / trellis=2 / 8x8dct=1 / cqm=0 / deadzone=21,11 / fast_pskip=0 / chroma_qp_offset=-2 / threads=6 / lookahead_threads=1 / sliced_threads=0 / nr=0 / decimate=1 / interlaced=0 / bluray_compat=0 / constrained_intra=0 / bframes=10 / b_pyramid=2 / b_adapt=2 / b_bias=0 / direct=1 / weightb=1 / open_gop=0 / weightp=2 / keyint=250 / keyint_min=23 / scenecut=40 / intra_refresh=0 / rc=crf / mbtree=0 / crf=19.5 / qcomp=0.65 / qpmin=0 / qpmax=69 / qpstep=4 / ip_ratio=1.40 / pb_ratio=1.30 / aq=3:0.90
Language : English
Default : Yes
Forced : No
Audio #2
ID : 2
Format : AC-3
Format/Info : Audio Coding 3
Mode extension : CM (complete main)
Format settings, Endianness : Big
Codec ID : A_AC3
Duration : 1h 36mn
Bit rate mode : Constant
Bit rate : 192 Kbps
Channel(s) : 2 channels
Channel positions : Front: L R
Sampling rate : 48.0 KHz
Frame rate : 31.250 fps (1536 spf)
Compression mode : Lossy
Stream size : 132 MiB (6%)
Title : MVO 1 kanal
Language : Russian
Default : Yes
Forced : No
Audio #3
ID : 3
Format : AC-3
Format/Info : Audio Coding 3
Mode extension : CM (complete main)
Format settings, Endianness : Big
Codec ID : A_AC3
Duration : 1h 36mn
Bit rate mode : Constant
Bit rate : 192 Kbps
Channel(s) : 2 channels
Channel positions : Front: L R
Sampling rate : 48.0 KHz
Frame rate : 31.250 fps (1536 spf)
Compression mode : Lossy
Stream size : 132 MiB (6%)
Title : MVO NTV+
Language : Russian
Default : No
Forced : No
Audio #4
ID : 4
Format : E-AC-3
Format/Info : Audio Coding 3
Format settings, Endianness : Big
Codec ID : A_EAC3
Duration : 1h 36mn
Bit rate mode : Constant
Bit rate : 224 Kbps
Channel(s) : 2 channels
Channel positions : Front: L R
Sampling rate : 48.0 KHz
Frame rate : 187.500 fps (256 spf)
Compression mode : Lossy
Stream size : 154 MiB (7%)
Language : English
Default : No
Forced : No
Text #5
ID : 5
Format : UTF-8
Codec ID : S_TEXT/UTF8
Codec ID/Info : UTF-8 Plain Text
Duration : 1h 32mn
Bit rate : 55 bps
Count of elements : 1556
Stream size : 37.8 KiB (0%)
Language : English
Default : No
Forced : No

лог

raw [info]: 1000x540p 1:1 @ 24000/1001 fps (cfr)
x264 [info]: using SAR=1/1
x264 [info]: using cpu capabilities: MMX2 SSE2Fast SSSE3 SSE4.2 AVX XOP FMA3 BMI1
x264 [info]: profile Progressive High, level 4.1, 4:2:0, 8-bit
x264 [info]: frame I:1038 Avg QP:18.95 size: 62785
x264 [info]: frame P:26653 Avg QP:20.00 size: 26772
x264 [info]: frame B:110881 Avg QP:21.84 size: 10023
x264 [info]: consecutive B-frames: 1.1% 1.0% 3.2% 21.7% 15.9% 37.9% 6.4% 8.1% 2.8% 1.4% 0.6%
x264 [info]: mb I I16..4: 2.3% 85.5% 12.1%
x264 [info]: mb P I16..4: 0.4% 11.4% 1.3% P16..4: 42.0% 26.0% 16.7% 0.3% 0.1% skip: 1.8%
x264 [info]: mb B I16..4: 0.0% 0.8% 0.1% B16..8: 42.8% 14.1% 3.8% direct: 7.0% skip:31.2% L0:45.0% L1:43.5% BI:11.5%
x264 [info]: 8x8 transform intra:85.6% inter:65.5%
x264 [info]: coded y,uvDC,uvAC intra: 94.8% 81.8% 41.9% inter: 34.7% 31.3% 0.6%
x264 [info]: i16 v,h,dc,p: 48% 29% 2% 21%
x264 [info]: i8 v,h,dc,ddl,ddr,vr,hd,vl,hu: 10% 9% 5% 10% 15% 14% 14% 12% 12%
x264 [info]: i4 v,h,dc,ddl,ddr,vr,hd,vl,hu: 13% 12% 2% 8% 15% 15% 14% 11% 11%
x264 [info]: i8c dc,h,v,p: 37% 25% 21% 17%
x264 [info]: Weighted P-Frames: Y:11.8% UV:6.1%
x264 [info]: ref P L0: 41.6% 14.1% 19.3% 6.7% 5.7% 3.7% 3.5% 1.8% 1.9% 1.6% 0.2% 0.0%
x264 [info]: ref B L0: 70.2% 13.2% 6.6% 3.4% 2.4% 1.9% 1.5% 0.7% 0.3%
x264 [info]: ref B L1: 93.2% 6.8%
x264 [info]: kb/s:2616.28
x264 [total]: encoded 138572 frames, 6.66 fps, 2616.28 kb/s

Скриншоты


[cybertorrent.ru].t7124.torrent 
Торрент: Зарегистрирован [ 2019-09-28 22:48 ] · FB60E360AEE8990DD4BF69E360D7D5FD9048DF2E

Скачать .torrent

Скачать

13 KB

Статус: проверено
Скачан: 0 раз
Размер: 2,43 GB
terms.php
Показать сообщения:    

Текущее время: 09-Дек 15:18

Часовой пояс: UTC ± 0



Вы не можете начинать темы
Вы не можете отвечать на сообщения
Вы не можете редактировать свои сообщения
Вы не можете удалять свои сообщения
Вы не можете голосовать в опросах
Вы не можете прикреплять файлы к сообщениям
Вы можете скачивать файлы