Статистика раздачи
Размер:  3,12 GB   |    Зарегистрирован:  8 месяцев 5 дней   |    Скачан:  0 раз
DL-List: Нет

Полного источника не было: Никогда

 
     
 
 

MAGNAT ®

Пол:
Мужской
Стаж:
1 год 2 месяца
Сообщений:
7949

Formula 3. 2019. Этап 8. Россия. Матч!
Вид спорта: Автоспорт
Описание: 8 этап серии Formula 3
Язык комментариев:
  • Русский (Алексей Попов и Наталья Фабричнова)
  • Интершум
    Автор рипа/записи: Ales
    Качество: DVB S2-Remux
    Формат видео: MKV
    Видео: H264, 1920x1080I, 50 кадр/c, 8 900 kb/s
    Аудио: 2xMP2 2.0, 48.0 KHz, 192 kb/s
    Дата/Год выпуска: 28.09.2019

    Продолжительность

    0:47:48

    Скриншоты

    MediaInfo

    General
    Unique ID : 14355125463751855346033904894184358212 (0xACCB254494DD33EEDE1FB5F42898144)
    Complete name : M:\F3_2019\Formula3.2019.Round.08.Russian.Race.One.Матч!.1080I.mkv
    Format : Matroska
    Format version : Version 4
    File size : 3.12 GiB
    Duration : 47 min 48 s
    Overall bit rate : 9 331 kb/s
    Encoded date : UTC 2019-09-28 08:41:20
    Writing application : mkvmerge v36.0.0 ('Is That Jazz?') 64-bit
    Writing library : libebml v1.3.9 + libmatroska v1.5.2
    Video
    ID : 1
    Format : AVC
    Format/Info : Advanced Video Codec
    Format profile : High@L4
    Format settings : CABAC / 4 Ref Frames
    Format settings, CABAC : Yes
    Format settings, Reference frames : 4 frames
    Codec ID : V_MPEG4/ISO/AVC
    Duration : 47 min 48 s
    Bit rate : 8 939 kb/s
    Width : 1 920 pixels
    Height : 1 080 pixels
    Display aspect ratio : 16:9
    Frame rate mode : Variable
    Frame rate : 49.904 FPS
    Original frame rate : 25.000 FPS
    Standard : Component
    Color space : YUV
    Chroma subsampling : 4:2:0
    Bit depth : 8 bits
    Scan type : Interlaced
    Scan type, store method : Separated fields
    Scan order : Top Field First
    Bits/(Pixel*Frame) : 0.086
    Stream size : 2.99 GiB (96%)
    Default : Yes
    Forced : No
    Color range : Limited
    Color primaries : BT.709
    Transfer characteristics : BT.709
    Matrix coefficients : BT.709
    Audio #1
    ID : 2
    Format : MPEG Audio
    Format version : Version 1
    Format profile : Layer 2
    Codec ID : A_MPEG/L2
    Codec ID/Hint : MP2
    Duration : 47 min 48 s
    Bit rate mode : Constant
    Bit rate : 192 kb/s
    Channel(s) : 2 channels
    Sampling rate : 48.0 kHz
    Frame rate : 41.666 FPS (1152 SPF)
    Compression mode : Lossy
    Delay relative to video : -16 ms
    Stream size : 65.7 MiB (2%)
    Language : Russian
    Default : Yes
    Forced : No
    Audio #2
    ID : 3
    Format : MPEG Audio
    Format version : Version 1
    Format profile : Layer 2
    Codec ID : A_MPEG/L2
    Codec ID/Hint : MP2
    Duration : 47 min 48 s
    Bit rate mode : Constant
    Bit rate : 192 kb/s
    Channel(s) : 2 channels
    Sampling rate : 48.0 kHz
    Frame rate : 41.666 FPS (1152 SPF)
    Compression mode : Lossy
    Delay relative to video : -16 ms
    Stream size : 65.7 MiB (2%)
    Default : No
    Forced : No
    [cybertorrent.ru].t7147.torrent 
    Торрент: Зарегистрирован [ 2019-09-29 15:08 ] · 02112BCF5ECDF1F38ED6B1453357D0B306ADEEB4

    Скачать .torrent

    Скачать

    32 KB

    Статус: проверено
    Скачан: 0 раз
    Размер: 3,12 GB  ·  Тип торрента
    terms.php
  • Профиль [ЛС]
    Показать сообщения:    

    Текущее время: 05-Июн 11:43

    Часовой пояс: UTC ± 0



    Вы не можете начинать темы
    Вы не можете отвечать на сообщения
    Вы не можете редактировать свои сообщения
    Вы не можете удалять свои сообщения
    Вы не можете голосовать в опросах
    Вы не можете прикреплять файлы к сообщениям
    Вы можете скачивать файлы