Статистика раздачи
Размер:  6,15 GB   |    Зарегистрирован:  8 месяцев 5 дней   |    Скачан:  0 раз
DL-List: Нет

Полного источника не было: Никогда

 
     
 
 

MAGNAT ®

Пол:
Мужской
Стаж:
1 год 2 месяца
Сообщений:
7949

Formula 2. 2019. Этап 11. Россия. Weekend. МАТЧ! Страна
Вид спорта: Автоспорт
Описание: 11 этап серии Formula 2
Язык комментариев: Русский
Автор рипа/записи: Ales
Качество: IPTV
Формат видео: MKV
Видео: H264, 1280x720p, 25 кадр/c, 4 500 kb/s
Аудио: AAC 2.0, 48.0 KHz, 128 kb/s Русский

Практика

Дата/Год выпуска: 06.09.2019

Продолжительность

0:48:34

Скриншоты

MediaInfo

General
Unique ID : 81679329200282480573538559771205559877 (0x3D72DDD921EA0FF73E55975C1DD9E645)
Complete name : M:\F2_2019\Formula2.2019.Round.11.Russian.Weekend.Матч!Страна.720P\01.Formula2.2019.Round.11.Russian.Practice.Матч!Страна.720P.mkv
Format : Matroska
Format version : Version 4
File size : 1.36 GiB
Duration : 48 min 34 s
Overall bit rate : 4 002 kb/s
Encoded date : UTC 2019-09-27 07:36:22
Writing application : mkvmerge v36.0.0 ('Is That Jazz?') 64-bit
Writing library : libebml v1.3.9 + libmatroska v1.5.2
Video
ID : 1
Format : AVC
Format/Info : Advanced Video Codec
Format profile : Baseline@L3.1
Format settings : 3 Ref Frames
Format settings, CABAC : No
Format settings, Reference frames : 3 frames
Format settings, GOP : M=1, N=25
Codec ID : V_MPEG4/ISO/AVC
Duration : 48 min 34 s
Bit rate : 3 871 kb/s
Width : 1 280 pixels
Height : 720 pixels
Display aspect ratio : 16:9
Frame rate mode : Constant
Frame rate : 25.000 FPS
Color space : YUV
Chroma subsampling : 4:2:0
Bit depth : 8 bits
Scan type : Progressive
Bits/(Pixel*Frame) : 0.168
Stream size : 1.31 GiB (97%)
Default : Yes
Forced : No
Audio
ID : 2
Format : AAC LC
Format/Info : Advanced Audio Codec Low Complexity
Codec ID : A_AAC-2
Duration : 48 min 34 s
Bit rate : 128 kb/s
Channel(s) : 2 channels
Channel layout : L R
Sampling rate : 44.1 kHz
Frame rate : 43.066 FPS (1024 SPF)
Compression mode : Lossy
Stream size : 44.5 MiB (3%)
Language : Russian
Default : Yes
Forced : No

Квалификация

Дата/Год выпуска: 06.09.2019

Продолжительность

0:36:00

Скриншоты

MediaInfo

Unique ID : 205138734053815827619773247499369264661 (0x9A54487710BC03AC282DD11400093615)
Complete name : M:\F3_2019\Formula3.2019.Round.08.Russian.Weekend.Матч!Страна.720P\02.Formula3.2019.Round.08.Russian.Qualifying.Матч!Страна.720P.mkv
Format : Matroska
Format version : Version 4
File size : 1.04 GiB
Duration : 36 min 0 s
Overall bit rate : 4 122 kb/s
Encoded date : UTC 2019-09-27 10:41:48
Writing application : mkvmerge v36.0.0 ('Is That Jazz?') 64-bit
Writing library : libebml v1.3.9 + libmatroska v1.5.2
Video
ID : 1
Format : AVC
Format/Info : Advanced Video Codec
Format profile : Baseline@L3.1
Format settings : 3 Ref Frames
Format settings, CABAC : No
Format settings, Reference frames : 3 frames
Format settings, GOP : M=1, N=25
Codec ID : V_MPEG4/ISO/AVC
Duration : 36 min 0 s
Bit rate : 3 992 kb/s
Width : 1 280 pixels
Height : 720 pixels
Display aspect ratio : 16:9
Frame rate mode : Constant
Frame rate : 25.000 FPS
Color space : YUV
Chroma subsampling : 4:2:0
Bit depth : 8 bits
Scan type : Progressive
Bits/(Pixel*Frame) : 0.173
Stream size : 1.00 GiB (97%)
Default : Yes
Forced : No
Audio
ID : 2
Format : AAC LC
Format/Info : Advanced Audio Codec Low Complexity
Codec ID : A_AAC-2
Duration : 36 min 0 s
Bit rate : 128 kb/s
Channel(s) : 2 channels
Channel layout : L R
Sampling rate : 44.1 kHz
Frame rate : 43.066 FPS (1024 SPF)
Compression mode : Lossy
Stream size : 33.0 MiB (3%)
Language : English
Default : Yes
Forced : No

1-ая гонка

Дата/Год выпуска: 28.09.2019

Продолжительность

1:06:01

Скриншоты

MediaInfo

General
Unique ID : 76704939551075328343049998955663223567 (0x39B4D580C97573215F995D31CE6E6B0F)
Complete name : M:\F2_2019\Formula2.2019.Round.11.Russian.Weekend.Матч!Страна.720P\03.Formula2.2019.Round.11.Russian.Race.One.Матч!Страна.720P.mkv
Format : Matroska
Format version : Version 4
File size : 1.83 GiB
Duration : 1 h 6 min
Overall bit rate : 3 957 kb/s
Encoded date : UTC 2019-09-28 15:26:21
Writing application : mkvmerge v36.0.0 ('Is That Jazz?') 64-bit
Writing library : libebml v1.3.9 + libmatroska v1.5.2
Video
ID : 1
Format : AVC
Format/Info : Advanced Video Codec
Format profile : Baseline@L3.1
Format settings : 3 Ref Frames
Format settings, CABAC : No
Format settings, Reference frames : 3 frames
Format settings, GOP : M=1, N=25
Codec ID : V_MPEG4/ISO/AVC
Duration : 1 h 6 min
Bit rate : 3 826 kb/s
Width : 1 280 pixels
Height : 720 pixels
Display aspect ratio : 16:9
Frame rate mode : Constant
Frame rate : 25.000 FPS
Color space : YUV
Chroma subsampling : 4:2:0
Bit depth : 8 bits
Scan type : Progressive
Bits/(Pixel*Frame) : 0.166
Stream size : 1.76 GiB (97%)
Default : Yes
Forced : No
Audio
ID : 2
Format : AAC LC
Format/Info : Advanced Audio Codec Low Complexity
Codec ID : A_AAC-2
Duration : 1 h 6 min
Bit rate : 128 kb/s
Channel(s) : 2 channels
Channel layout : L R
Sampling rate : 44.1 kHz
Frame rate : 43.066 FPS (1024 SPF)
Compression mode : Lossy
Stream size : 60.5 MiB (3%)
Language : Russian
Default : Yes
Forced : No

2-ая гонка

Дата/Год выпуска: 29.09.2019

Продолжительность

1:12:57

Скриншоты

MediaInfo

General
Unique ID : 148710772107302240320733092023813743359 (0x6FE0A724CF97F826F2D7048F9C1722FF)
Complete name : M:\F2_2019\Formula2.2019.Round.11.Russian.Weekend.Матч!Страна.720P\04.Formula2.2019.Round.11.Russian.Race.Two.Матч!Страна.720P.mkv
Format : Matroska
Format version : Version 4
File size : 2.09 GiB
Duration : 1 h 12 min
Overall bit rate : 4 108 kb/s
Encoded date : UTC 2019-09-29 10:03:36
Writing application : mkvmerge v36.0.0 ('Is That Jazz?') 64-bit
Writing library : libebml v1.3.9 + libmatroska v1.5.2
Video
ID : 1
Format : AVC
Format/Info : Advanced Video Codec
Format profile : Baseline@L3.1
Format settings : 3 Ref Frames
Format settings, CABAC : No
Format settings, Reference frames : 3 frames
Format settings, GOP : M=1, N=25
Codec ID : V_MPEG4/ISO/AVC
Duration : 1 h 12 min
Bit rate : 3 977 kb/s
Width : 1 280 pixels
Height : 720 pixels
Display aspect ratio : 16:9
Frame rate mode : Constant
Frame rate : 25.000 FPS
Color space : YUV
Chroma subsampling : 4:2:0
Bit depth : 8 bits
Scan type : Progressive
Bits/(Pixel*Frame) : 0.173
Stream size : 2.03 GiB (97%)
Default : Yes
Forced : No
Audio
ID : 2
Format : AAC LC
Format/Info : Advanced Audio Codec Low Complexity
Codec ID : A_AAC-2
Duration : 1 h 12 min
Bit rate : 128 kb/s
Channel(s) : 2 channels
Channel layout : L R
Sampling rate : 44.1 kHz
Frame rate : 43.066 FPS (1024 SPF)
Compression mode : Lossy
Stream size : 66.8 MiB (3%)
Language : Russian
Default : Yes
Forced : No
[cybertorrent.ru].t7150.torrent 
Торрент: Зарегистрирован [ 2019-09-29 15:09 ] · DE20691D16510603BDD5C563973130E76A817D29

Скачать .torrent

Скачать

63 KB

Статус: проверено
Скачан: 0 раз
Размер: 6,15 GB  ·  Тип торрента
terms.php
Профиль [ЛС]
Показать сообщения:    

Текущее время: 05-Июн 13:16

Часовой пояс: UTC ± 0



Вы не можете начинать темы
Вы не можете отвечать на сообщения
Вы не можете редактировать свои сообщения
Вы не можете удалять свои сообщения
Вы не можете голосовать в опросах
Вы не можете прикреплять файлы к сообщениям
Вы можете скачивать файлы