Статистика раздачи
Размер:  3,64 GB   |    Зарегистрирован:  3 месяца 7 дней   |    Скачан:  0 раз

Полного источника не было: Никогда

Личеров:  1  [  0 KB/s  ]  
 
   
 
 

dazbaz ®

Пол:
Не указан
Стаж:
3 месяца 8 дней
Сообщений:
216

Ребро Адама
Страна: СССР
Студия: "Мосфильм"
Жанр: мелодрама, трагикомедия
Год выпуска: 1990
Продолжительность: 01:13:56
Перевод: не требуется
Субтитры: отсутствуют
Оригинальная аудиодорожка: русский
Режиссёр: Вячеслав Криштофович
В ролях: Инна Чурикова, Светлана Рябова, Маша Голубкина, Елена Богданова, Андрей Толубеев, Игорь Кваша, Ростислав Янковский, Андрей Касьянов, Станислав Житарев, Галина Казакова, и др.
Описание: Если обозначить жанр этого фильма — как трагедия, то ошибки не будет, можно назвать его и социальной драмой. Потому что живут в крохотной квартирке женщина с двумя дочерьми и парализованной матерью... Как раз те условия, которые не только порождают абсурд, но и куют характер, способный в любой драматической ситуации выжать улыбку.
По мотивам повести Анатолия Курчаткина "Бабий дом".
Издатель диска: "Классик Компани"
Меню: Русский, статичное, озвученное.

Тип релиза: DVD5
Контейнер: DVD-Video
Видео: PAL 4:3 (720x576) VBR, ~ 7001.84 kbps avg
Аудио: 48 kHz, AC3 Dolby Digital, 3/2 (L,C,R,l,r) + LFE ch, ~384 kbps

DVDInfo

Title: Ребро_Адама_1990_DVD5_[torrents.ru]
Size: 3.63 Gb ( 3 806 444,00 KBytes ) - DVD-5
Enabled regions: 1, 2, 3, 4, 5, 6, 7, 8
VTS_01 :
Play Length: 00:00:10
Video: PAL 4:3 (720x576) VBR
VTS_02 :
Play Length: 01:13:56
Video: PAL 4:3 (720x576) VBR
Audio:
Russian (Dolby AC3, 6 ch)
* Menus Information *
VIDEO_TS Menu
Video:
PAL 4:3 (720x576) VBR
English Language Unit :
Title Menu
VTS_01 Menu
Video:
PAL 4:3 (720x576) VBR
Audio:
Not specified (Dolby AC3, 2 ch)
English Language Unit :
Root Menu
VTS_02 Menu
Video:
PAL 4:3 (720x576) VBR
English Language Unit :
Root Menu

MediaInfo - VTS_02_1.VOB

Общее
Полное имя : C:\Ребро_Адама_1990_DVD5_[torrents.ru]\VIDEO_TS\VTS_02_1.VOB
Формат : MPEG-PS
Размер файла : 1024 Мбайт
Продолжительность : 20 м. 28 с.
Режим общего битрейта : Переменный
Общий поток : 6989 Кбит/сек
Видео
Идентификатор : 224 (0xE0)
Формат : MPEG Video
Версия формата : Version 2
Профиль формата : Main@Main
Настройки формата : BVOP
Параметр BVOP формата : Да
Параметр матрицы формата : По умолчанию
Параметр GOP формата : M=3, N=15
Структура изображения : Frame
Продолжительность : 20 м. 28 с.
Вид битрейта : Переменный
Битрейт : 6466 Кбит/сек
Максимальный битрейт : 8000 Кбит/сек
Ширина : 720 пикселей
Высота : 576 пикселей
Соотношение сторон : 4:3
Частота кадров : 25,000 кадров/сек
Стандарт вещания : PAL
Цветовое пространство : YUV
Субдискретизация насыщенности : 4:2:0
Битовая глубина : 8 бит
Тип развёртки : Чересстрочная
Порядок развёртки : Нижнее поле первое
Метод сжатия : С потерями
Бит/(Пиксели*Кадры) : 0.624
Временной код первого кадра : 00:00:00:00
Оригинал временного кода : Group of pictures header
GOP, открыто/закрыто : Открыто
GOP, открыто/закрыто на первом кадре : Закрыто
Размер потока : 947 Мбайт (93%)
Аудио
Идентификатор : 189 (0xBD)-128 (0x80)
Формат : AC-3
Формат/Информация : Audio Coding 3
Параметр Endianness формата : Big
Режим смешивания : DVD-Video
Продолжительность : 20 м. 28 с.
Вид битрейта : Постоянный
Битрейт : 384 Кбит/сек
Каналы : 6 каналов
Расположение каналов : Front: L C R, Side: L R, LFE
Частота : 48,0 КГц
Частота кадров : 31,250 кадров/сек (1536 SPF)
Битовая глубина : 16 бит
Метод сжатия : С потерями
Размер потока : 56,2 Мбайт (5%)
ServiceKind/String : Complete Main
Меню

Скриншоты меню


В рамках ликвидации приватных раздач, торрент-файл перезагружен 03-Дек-17 05:42.

http://cybertorrent.ru/viewtopic.php?t=5403618-Переименована папка с файлами - "REBRO_ADAMA" --> "Ребро_Адама_1990_DVD5_[torrents.ru]".
Добавлены сканы диска и обложки.-Оформление отредактировано, для приведения в соответствие с действующими правилами раздела "DVD Video" - http://cybertorrent.ru/viewtopic.php?t=2277887 .-Просьба к ранее скачавшим, скачать новый торрент-файл, затем докачать добавленную папку со сканами, и присоединиться к раздаче - http://cybertorrent.ru/viewtopic.php?t=3473252 .
[cybertorrent.ru].t716.torrent 
Торрент: Зарегистрирован [ 2018-02-15 22:25 ] · E4377ADC42310007FF6244C4AE59F40BD17E0BB4

Скачать .torrent

Скачать

19 KB

Статус: проверено
Скачан: 0 раз
Размер: 3,64 GB
Профиль [ЛС]
Показать сообщения:    

Текущее время: 23-Май 16:41

Часовой пояс: UTC ± 0



Вы не можете начинать темы
Вы не можете отвечать на сообщения
Вы не можете редактировать свои сообщения
Вы не можете удалять свои сообщения
Вы не можете голосовать в опросах
Вы не можете прикреплять файлы к сообщениям
Вы можете скачивать файлы