Статистика раздачи
Размер:  745 MB   |    Зарегистрирован:  2 месяца 9 дней   |    Скачан:  0 раз

Полного источника не было: Никогда

 
     
 
 

Гость ®

Пол:
Не указан

Добрых похорон, друг мой ... Сартана идёт / Рубите лес на гробы, за всё платит Сартана / Buon funerale, amigos!... paga Sartana / Noch warm und schon sand drauf
Страна: Италия, Испания
Жанр: вестерн, приключения
Год выпуска: 1970
Продолжительность: 01:33.16
Перевод: Авторский (одноголосый закадровый) Василий Горчаков
Субтитры: нет
Режиссер: Джулиано Карнимэо / Giuliano Carnimeo
В ролях: Джанни Гарко, Даниэла Джордано, Хельга Лине, Ивано Стаччиоли, Луис Индуни, Франко Рессель, Федерико Бойдо, Франко Пеше
Описание: .... Сартана, как всегда, оказывается в гуще бурных событий где-то на Диком Западе.. Многие, очень многие хотят его убить. Но “хотеть” и “мочь”, как известно, - это две очень разные вещи...
Сэмпл: http://multi-up.com/1242307
Качество видео: DVDRip (Исходник - DVD5)
Формат видео: AVI
Видео: XviD, 656x272, (2,40:1), 25,000 fps, 903 Кбит/с, 8 бит
Аудио: Русский (АС3, 2 ch (Front: L R), 48,0 KHz, 192 Kbps)

MediaInfo

Общее
Полное имя : D:\Фильмы на трекер\Добрых похорон, друг мой ... Сартана идёт (вестерн 1970 год).avi
Формат : AVI
Формат/Информация : Audio Video Interleave
Размер файла : 745 Мбайт
Продолжительность : 1 ч. 34 м.
Общий поток : 1104 Кбит/сек
Программа кодирования : VirtualDubMod 1.5.10.3 | www.virtualdub-fr.org || (build 2550/release)
Библиотека кодирования : VirtualDubMod build 2550/release
Видео
Идентификатор : 0
Формат : MPEG-4 Visual
Профиль формата : Advanced Simple@L5
Параметр BVOP формата : 2
Параметр QPel формата : Нет
Параметр GMC формата : Без точки перехода
Параметр матрицы формата : Выборочная
Идентификатор кодека : XVID
Идентификатор кодека/Подсказка : XviD
Продолжительность : 1 ч. 34 м.
Битрейт : 903 Кбит/сек
Ширина : 656 пикселей
Высота : 272 пикселя
Соотношение сторон : 2,40:1
Частота кадров : 25,000 кадров/сек
Цветовое пространство : YUV
Субдискретизация насыщенности : 4:2:0
Битовая глубина : 8 бит
Тип развёртки : Прогрессивная
Метод сжатия : С потерями
Бит/(Пиксели*Кадры) : 0.202
Размер потока : 609 Мбайт (82%)
Библиотека кодирования : XviD 73
Аудио
Идентификатор : 1
Формат : AC-3
Формат/Информация : Audio Coding 3
Расширение режима : CM (complete main)
Параметр Endianness формата : Big
Идентификатор кодека : 2000
Продолжительность : 1 ч. 34 м.
Вид битрейта : Постоянный
Битрейт : 192 Кбит/сек
Каналы : 2 канала
Расположение каналов : Front: L R
Частота : 48,0 КГц
Частота кадров : 31,250 кадров/сек (1536 spf)
Метод сжатия : С потерями
Размер потока : 129 Мбайт (17%)
Выравнивание : Разделение по промежуткам
Продолжительность промежутка : 40 мс. (1,00 видеокадр)
Время предзагрузки промежутка : 500 мс.

Скриншот c названием фильма

Скриншоты

[cybertorrent.ru].t7198.torrent 
Торрент: Зарегистрирован [ 2019-09-29 17:07 ] · F0675A5A4ED6E9EC431EF1FA94362CB985CB5A75

Скачать .torrent

Скачать

15 KB

Статус: проверено
Скачан: 0 раз
Размер: 745 MB
terms.php
Показать сообщения:    

Текущее время: 09-Дек 15:00

Часовой пояс: UTC ± 0



Вы не можете начинать темы
Вы не можете отвечать на сообщения
Вы не можете редактировать свои сообщения
Вы не можете удалять свои сообщения
Вы не можете голосовать в опросах
Вы не можете прикреплять файлы к сообщениям
Вы можете скачивать файлы