Статистика раздачи
Размер:  1,37 GB   |    Зарегистрирован:  3 месяца 12 дней   |    Скачан:  0 раз

Полного источника не было: Никогда

 
   
 
 

lopster ®

Пол:
Не указан
Стаж:
3 месяца 12 дней
Сообщений:
612

С точки зрения ангела
Год выпуска: 2000
Жанр: Комедия
Продолжительность: 01:30:00
Режиссер: Матвей Ганапольский
В ролях:
Эдуард Радзюкевич ...Дмитрий
Юлия Рутберг ...Эля
Римма Маркова ...Домна Васильевна
Валентина Талызина ...Валентина Федоровна
Наталья Селезнева ...Тереза Константиновна
Дарья Волга ...Лиза
Оксана Сташенко ...жена
Описание: По сюжету, герой фильма Дмитрий (Эдуард Радзюкевич) хочет продать свою квартиру, но для этого ему необходимо сделать ремонт. Денег у Дмитрия нет, и он вынужден одолжить их у своей любовницы Эли (Юлия Рутберг). Эля ставит условие: квартира должна быть продана до 1 января, то есть до Нового года. Ремонт сделан, и Дмитрий обращается в риэлторскую фирму. В это время к Дмитрию приходят три женщины, которые много лет назад, когда квартира была еще коммунальной, проживали в ней. Визит женщин связан не только с ностальгическими воспоминаниями: давным-давно в квартире были спрятаны сокровища. Женщины открывают Дмитрию свой секрет, и все вместе начинают искать драгоценности. В итоге свежеотремонтированные стены разрушены, имущество испорчено, а сокровища так и не найдены...
Все раздачи фильма: С точки зрения ангела
Качество: DVDRip
Формат: AVI
Видео кодек: XviD
Аудио кодек: MP3
Видео: 624x464 (1.34:1), 25 fps, XviD build 47 ~2687 kbps avg, 0.37 bit/pixel
Аудио: 48 kHz, MPEG Layer 3, 2 ch, ~110.00 kbps avg

MI

Код:Общее
Полное имя : C:\otkat\Видео\С точки зрения ангела\ANGEL.avi
Формат : AVI
Формат/Информация : Audio Video Interleave
Размер файла : 1,37 Гбайт
Продолжительность : 1 ч. 9 м.
Режим общего битрейта : Переменный
Общий поток : 2811 Кбит/сек
Программа кодирования : VirtualDubMod 1.5.4.1 (build 2178/release)
Библиотека кодирования : VirtualDubMod build 2178/release
Видео
Идентификатор : 0
Формат : MPEG-4 Visual
Профиль формата : Advanced Simple@L5
Параметр BVOP формата : 1
Параметр QPel формата : Нет
Параметр GMC формата : Без точки перехода
Параметр матрицы формата : Выборочная
Идентификатор кодека : XVID
Идентификатор кодека/Подсказка : XviD
Продолжительность : 1 ч. 9 м.
Битрейт : 2688 Кбит/сек
Ширина : 624 пикселя
Высота : 464 пикселя
Соотношение сторон : 4:3
Частота кадров : 25,000 кадров/сек
Цветовое пространство : YUV
Субдискретизация насыщенности : 4:2:0
Битовая глубина : 8 бит
Тип развёртки : Прогрессивная
Метод сжатия : С потерями
Бит/(Пиксели*Кадры) : 0.371
Размер потока : 1,31 Гбайт (96%)
Библиотека кодирования : XviD 1.2.0.dev47 (UTC 2006-11-01)
Аудио
Идентификатор : 1
Формат : MPEG Audio
Версия формата : Version 1
Профиль формата : Layer 3
Режим : Joint stereo
Расширение режима : MS Stereo
Идентификатор кодека : 55
Идентификатор кодека/Подсказка : MP3
Продолжительность : 1 ч. 9 м.
Вид битрейта : Переменный
Битрейт : 110 Кбит/сек
Номинальный битрейт : 128 Кбит/сек
Каналы : 2 канала
Частота : 48,0 КГц
Метод сжатия : С потерями
Размер потока : 54,8 Мбайт (4%)
Выравнивание : Соединение по промежуткам
Продолжительность промежутка : 24 мс. (0,60 видеокадр)
Время предзагрузки промежутка : 548 мс.
Библиотека кодирования : LAME3.97
Настройки программы : -m j -V 4 -q 2 -lowpass 17 --abr 128
Язык : English

Скриншоты

[cybertorrent.ru].t72.torrent 
Торрент: Зарегистрирован [ 2018-02-15 13:57 ] · B1B708D0FFBD3DE169D3D82E549D5F37535B9549

Скачать .torrent

Скачать

14 KB

Статус: проверено
Скачан: 0 раз
Размер: 1,37 GB
Профиль [ЛС]
Показать сообщения:    

Текущее время: 28-Май 08:10

Часовой пояс: UTC ± 0



Вы не можете начинать темы
Вы не можете отвечать на сообщения
Вы не можете редактировать свои сообщения
Вы не можете удалять свои сообщения
Вы не можете голосовать в опросах
Вы не можете прикреплять файлы к сообщениям
Вы можете скачивать файлы