Статистика раздачи
Размер:  9,92 GB   |    Зарегистрирован:  2 месяца 10 дней   |    Скачан:  0 раз

Полного источника не было: Никогда

 
     
 
 

Гость ®

Пол:
Не указан

Квини / Queenie
Страна: США
Жанр: драма
Год выпуска: 1987
Продолжительность: 03:45:18
Перевод: одноголосый закадровый ???
Субтитры: финские
Режиссер: Ларри Пирс / Larry Peerce
В ролях: Джосс Экленд
Мартин Болсам
Клэр Блум
Гари Кэди
Кейт Эмма Дейвис
Элисон Дуди
Кирк Дуглас
Серена Гордон
Джоэл Грей
Описание: Красавица полукровка уезжает из Британской Индии в поисках счастья и становится Голливудской кинозвездой, не разглашая правду о своем происхождении…
Доп. информация: Оцифровка VHS (личный архив) и получение VHSRip alenavova
Эксклюзив для rutracker.org. При размещении данного релиза на других сайтах ссылка на автора alenavova обязательна.
Релиз
Сэмпл: https://yadi.sk/d/V1VZfhMM_gXpUQ
Качество видео: VHSRip
Формат видео: AVI
Видео: MPEG2 Video 720x576 (4:3) 25fps Bit rate 6 000 kb/s
Аудио: MPEG Audio 48000Hz 192kbps
Формат субтитров: hardsub (неотключаемые)

MediaInfo

Квини Queenie 1987 [by alenavova].mpg
Format : MPEG-PS
File size : 9.92 GiB
Duration : 3 h 45 min
Overall bit rate mode : Variable
Overall bit rate : 6 304 kb/s
Writing library : (dvd5: Oct 27 2015)
Video
ID : 224 (0xE0)
Format : MPEG Video
Format version : Version 2
Format profile : Main@Main
Format settings : CustomMatrix / BVOP
Format settings, BVOP : Yes
Format settings, Matrix : Custom
Format settings, GOP : M=3, N=15
Duration : 3 h 45 min
Bit rate mode : Variable
Bit rate : 6 000 kb/s
Width : 720 pixels
Height : 576 pixels
Display aspect ratio : 4:3
Frame rate : 25.000 FPS
Standard : PAL
Color space : YUV
Chroma subsampling : 4:2:0
Bit depth : 8 bits
Scan type : Progressive
Compression mode : Lossy
Bits/(Pixel*Frame) : 0.579
Time code of first frame : 00:00:00:00
Time code source : Group of pictures header
GOP, Open/Closed : Open
GOP, Open/Closed of first f : Closed
Stream size : 9.42 GiB (95%)
Writing library : (dvd5: Oct 27 2015)
Audio
ID : 192 (0xC0)
Format : MPEG Audio
Format version : Version 1
Format profile : Layer 2
Duration : 3 h 45 min
Bit rate mode : Constant
Bit rate : 192 kb/s
Channel(s) : 2 channels
Sampling rate : 48.0 kHz
Frame rate : 41.667 FPS (1152 SPF)
Compression mode : Lossy
Delay relative to video : -20 ms
Stream size : 309 MiB (3%)

Скриншоты


[cybertorrent.ru].t7200.torrent 
Торрент: Зарегистрирован [ 2019-09-29 17:07 ] · 998EBB6BBDBCE1D4F1994C1E446DFD7C23B4A80A

Скачать .torrent

Скачать

50 KB

Статус: проверено
Скачан: 0 раз
Размер: 9,92 GB
terms.php
Показать сообщения:    

Текущее время: 09-Дек 23:05

Часовой пояс: UTC ± 0



Вы не можете начинать темы
Вы не можете отвечать на сообщения
Вы не можете редактировать свои сообщения
Вы не можете удалять свои сообщения
Вы не можете голосовать в опросах
Вы не можете прикреплять файлы к сообщениям
Вы можете скачивать файлы