Статистика раздачи
Размер:  2,19 GB   |    Зарегистрирован:  2 месяца 16 дней   |    Скачан:  0 раз

Полного источника не было: Никогда

 
     
 
 

Гость ®

Пол:
Не указан

Женщина без предрассудков / Холостячка / La garçonne
Страна: Франция
Жанр: Драма, мелодрама
Год выпуска: 1988
Продолжительность: 02:57:10
Перевод: Авторский (одноголосый закадровый) Владимир Штейн
Субтитры: нет
Режиссер: Этьен Перье / Etienne Périer
В ролях: Мари Трентиньян
Валери Лемойн
Даниэль Месгиш
Максим Леру
Надин Алари
Франсуаза Арнуль
Филипп Этесс
Анн Мачина
Эвелин Дандри
Ролан Бертен
Описание: Моник Сорбье собирается выйти замуж за Люсьена Виньера. Нет, она не любит этого мужчину, но ее родители считают, что нельзя упускать такой финансово выгодный брак. Итак, будет брак по расчету и жизнь приличной жены? Вот уж нет! Накануне свадьбы Моник застает своего жениха в кабаре, мало того - в отдельном кабинете, где он любезничает отнюдь не со старой тетушкой. Еще не женился, но уже неверен - этого Моник терпеть не желает. Она принимает решение расстаться с женихом и «жить своей жизнью», несмотря на мнение родителей и общества.
Моник становится модельером, ее жизнь наполнена множеством событий, искушениями и удовольствиями, и вереницей любовных связей... не только с мужчинами. Однако, когда она вновь встречается с Люсьеном, то соглашается жить с ним. Гибельное решение, потому что за прошедшее время бывший жених прекрасной Моник стал очень ревнивым и очень жестоким человеком...
Доп. информация: Оцифровка VHS (личный архив) и получение VHSRip alenavova
Эксклюзив для rutracker.org. При размещении данного релиза на других сайтах ссылка на автора alenavova обязательна.
Релиз
Сэмпл: https://yadi.sk/i/3_yyIiPlv23ieQ
Качество видео: VHSRip
Формат видео: AVI
Видео: 704x528 (1.33:1), 25 fps, XviD build 73 ~1574 kbps avg, 0.17 bit/pixel
Аудио: 48 kHz, AC3 Dolby Digital, 2/0 (L,R) ch, ~192 kbps

MediaInfo

Женщина без предрассудков - La garconne 1988 (by alenavova).avi
Format : AVI
Format/Info : Audio Video Interleave
Format profile : OpenDML
File size : 2.19 GiB
Duration : 3 h 20 min
Overall bit rate : 1 565 kb/s
Movie name : Женщина без предрассудков - La garconne 1988 (by alenavova)
Director : by alenavova
Writing application : Nandub v1.0rc2
Copyright : Edich2
Comment : RuTracker.org
Video
ID : 0
Format : MPEG-4 Visual
Format profile : Advanced Simple@L5
Format settings : BVOP1 / Custom Matrix
Format settings, BVOP : 1
Format settings, QPel : No
Format settings, GMC : No warppoints
Format settings, Matrix : Custom
Codec ID : XVID
Codec ID/Hint : XviD
Duration : 2 h 57 min
Bit rate : 1 569 kb/s
Width : 704 pixels
Height : 528 pixels
Display aspect ratio : 4:3
Frame rate : 25.000 FPS
Color space : YUV
Chroma subsampling : 4:2:0
Bit depth : 8 bits
Scan type : Progressive
Compression mode : Lossy
Bits/(Pixel*Frame) : 0.169
Stream size : 1.94 GiB (88%)
Writing library : XviD 73
Audio
ID : 1
Format : AC-3
Format/Info : Audio Coding 3
Codec ID : 2000
Duration : 3 h 20 min
Source duration : 2 h 57 min
Bit rate mode : Constant
Bit rate : 192 kb/s
Channel(s) : 2 channels
Channel positions : Front: L R
Sampling rate : 48.0 kHz
Frame rate : 31.250 FPS (1536 SPF)
Bit depth : 16 bits
Compression mode : Lossy
Stream size : 243 MiB (11%)
Alignment : Split accross interleaves
Interleave, duration : 40 ms (1.00 video frame)
Interleave, preload duratio : 500 ms
Service kind : Complete Main

Скриншоты


[cybertorrent.ru].t7201.torrent 
Торрент: Зарегистрирован [ 2019-09-29 17:07 ] · 2D11EE6C62310713C827417F4DB055347D70CC23

Скачать .torrent

Скачать

11 KB

Статус: проверено
Скачан: 0 раз
Размер: 2,19 GB
terms.php
Показать сообщения:    

Текущее время: 15-Дек 23:03

Часовой пояс: UTC ± 0



Вы не можете начинать темы
Вы не можете отвечать на сообщения
Вы не можете редактировать свои сообщения
Вы не можете удалять свои сообщения
Вы не можете голосовать в опросах
Вы не можете прикреплять файлы к сообщениям
Вы можете скачивать файлы