Статистика раздачи
Размер:  2,34 GB   |    Зарегистрирован:  2 месяца 16 дней   |    Скачан:  0 раз
Сидов:  37  [  0 KB/s  ]  
 
     
 
 

Гость ®

Пол:
Не указан

Сердце не обманет, сердце не предаст
Год выпуска: 2019
Производство: Россия, ООО Продюсерский Центр «Кедр»
Жанр: Детектив
Продолжительность: 4 х ~ 00:45:00
Субтитры: Отсутствуют
Режиссёр: Александра Бутько
В ролях: Илья Носков, Алёна Созинова, Анастасия Лазо, Иван Стрельцов, Сергей Ходьков, Григорий Соловьев, Ольга Дятловская, Валентина Гарцуева, Сергей Масленников, Андрей Милюхин, Салтанат Нурмуханбетова, Виктор Васильев
Описание: Никого нынче не удивишь убийством, замаскированным под самоубийство. Но частный сыщик Алексей Кисанов был весьма озадачен, услышав, что имеет дело с самоубийством, замаскированным под убийство. Погиб Михаил Козырев, уважаемый психиатр, – то ли сам выбросился в окно, то ли его столкнули. Алексей не сомневался, что он быстро разберется с этим делом и… ошибся! Человек погиб, но кто-то продолжает преследовать его близких и знакомых: подвергается нападению сестра Михаила, затем ассистентка, клиентка психиатра жестоко избита и находится в коме. Алексей уже начал всерьез опасаться за собственную семью! Чехарда странных и опасных событий будет продолжаться до тех пор, пока детектив не узнает тайну серебряного сердечка со стразами, за которым идет настоящая охота…
Премьера: 29 сентября 2019 года (ТВЦ)
Реклама: Отсутствует
Сэмпл: http://multi-up.com/1242357
Качество: WEBRip
Формат: AVI
Видео кодек: XviD
Аудио кодек: AC3
Видео: XviD, 720x400, ~ 1635 Кбит/с, 0.227 bit/pixel
Аудио: AC3, 2 ch, 192 Кбит/с

MI

Общее
Полное имя : D:\Сердце.не.обманет.Сердце.не.предаст.2019.WEB-DLRip\01.Сердце.не.обманет.Сердце.не.предаст.avi
Формат : AVI
Формат/Информация : Audio Video Interleave
Размер файла : 600 Мбайт
Продолжительность : 45 м. 38 с.
Общий поток : 1838 Кбит/сек
Название фильма : 01.Сердце.не.обманет.Сердце.не.предаст
Программа кодирования : Lavf58.20.100
Видео
Идентификатор : 0
Формат : MPEG-4 Visual
Профиль формата : Advanced Simple@L5
Настройки формата : BVOP1
Параметр BVOP формата : 1
Параметр QPel формата : Нет
Параметр GMC формата : Без точки перехода
Параметр матрицы формата : Default (MPEG)
Идентификатор кодека : XVID
Идентификатор кодека/Подсказка : XviD
Продолжительность : 45 м. 38 с.
Битрейт : 1635 Кбит/сек
Ширина : 720 пикселей
Высота : 400 пикселей
Соотношение сторон : 16:9
Частота кадров : 25,000 кадров/сек
Цветовое пространство : YUV
Субдискретизация насыщенности : 4:2:0
Битовая глубина : 8 бит
Тип развёртки : Прогрессивная
Метод сжатия : С потерями
Бит/(Пиксели*Кадры) : 0.227
Размер потока : 534 Мбайт (89%)
Библиотека кодирования : XviD 73
Аудио
Идентификатор : 1
Формат : AC-3
Формат/Информация : Audio Coding 3
Коммерческое название : Dolby Digital
Идентификатор кодека : 2000
Продолжительность : 45 м. 38 с.
Вид битрейта : Постоянный
Битрейт : 192 Кбит/сек
Каналы : 2 канала
ChannelLayout : L R
Частота : 48,0 КГц
Частота кадров : 31,250 кадров/сек (1536 SPF)
Битовая глубина : 16 бит
Размер потока : 62,7 Мбайт (10%)
Выравнивание : Соединение по промежуткам
Продолжительность промежутка : 32 мс. (0,80 видеокадр)
Время предзагрузки промежутка : 512 мс.
ServiceKind/String : Complete Main

Скриншоты

Предыдущие и альтернативные раздачи
[cybertorrent.ru].t7203.torrent 
Торрент: Зарегистрирован [ 2019-09-29 17:07 ] · 1AEB678511FFAE13E0A64AD050CB0E6BCFF74E6E

Скачать .torrent

Скачать

13 KB

Статус: проверено
Скачан: 0 раз
Размер: 2,34 GB
terms.php
Показать сообщения:    

Текущее время: 16-Дек 00:46

Часовой пояс: UTC ± 0



Вы не можете начинать темы
Вы не можете отвечать на сообщения
Вы не можете редактировать свои сообщения
Вы не можете удалять свои сообщения
Вы не можете голосовать в опросах
Вы не можете прикреплять файлы к сообщениям
Вы можете скачивать файлы