Статистика раздачи
Размер:  8,78 GB   |    Зарегистрирован:  2 месяца 9 дней   |    Скачан:  0 раз
Сидов:  15  [  0 KB/s  ]   Личеров:  4  [  0 KB/s  ]  
 
     
 
 

Гость ®

Пол:
Не указан

Не ждали
Год выпуска: 2018
Производство: Фаворит-фильм
Жанр: драма
Продолжительность: ~00:48:00 серия
Субтитры: нет
Режиссёр: Виктор Мережко
В ролях: Олег Басилашвили, Евгений Князев, Иван Колесников, Ольга Хохлова , Владимир Кошевой, Александр Большаков , Нелли Попова, Хельга Филиппова
Описание: История, рассказанная в фильме, касается важнейшей моральной темы — ответственности за содеянное. Мы живем в мире, переплетенном разноплановыми поступками — и добропорядочными, и злонамеренными. И истина состоит в том, что все в жизни подчинено закону бумеранга: добро возвращается добром, разрушение — разрушением. Нельзя, невозможно, недопустимо жить по принципам безнравственности, безнаказанности. Недопустимо строить собственное благополучие на несчастье других, ибо наказания за принесенные несчастья рано или поздно непременно вернутся.

Реклама: Нет.
Кинопоиск
Все раздачи сериала
Sample
Качество: HDTV 1080i - GeneralFilm
Формат: TS
Видео кодек: AVC
Аудио кодек: AC3, MP2
Видео: MPEG4 AVC Video, H264, 16:9, 1920x1080, 25 fps, ~5550 kbps, 0.107 bit/pixel
Аудио: AC3, 6 ch, 384 kbps, 16 bits, 48.0 KHz
Аудио 2: MP2, 2 ch, 192 kbps, 16 bits, 48.0 KHz

MI

General
ID : 1 (0x1)
Complete name : D:\Ne zhdali.HDTV(1080i).GeneralFilm\01.Ne zhdali.HDTV(1080i).GeneralFilm.ts
Format : MPEG-TS
File size : 2.21 GiB
Duration : 48 min 55 s
Overall bit rate mode : Variable
Overall bit rate : 6 457 kb/s
Video
ID : 1904 (0x770)
Menu ID : 5640 (0x1608)
Format : AVC
Format/Info : Advanced Video Codec
Format profile : High@L4
Format settings : CABAC / 3 Ref Frames
Format settings, CABAC : Yes
Format settings, ReFrames : 3 frames
Format settings, GOP : M=4, N=32
Codec ID : 27
Duration : 48 min 54 s
Bit rate : 5 556 kb/s
Width : 1 920 pixels
Height : 1 080 pixels
Display aspect ratio : 16:9
Frame rate : 25.000 FPS
Standard : Component
Color space : YUV
Chroma subsampling : 4:2:0
Bit depth : 8 bits
Scan type : Interlaced
Scan type, store method : Separated fields
Scan order : Top Field First
Bits/(Pixel*Frame) : 0.107
Stream size : 1.90 GiB (86%)
Color range : Limited
Color primaries : BT.709
Transfer characteristics : BT.709
Matrix coefficients : BT.709
Audio #1
ID : 2904 (0xB58)
Menu ID : 5640 (0x1608)
Format : AC-3
Format/Info : Audio Coding 3
Codec ID : 6
Duration : 48 min 55 s
Bit rate mode : Constant
Bit rate : 384 kb/s
Channel(s) : 6 channels
Channel positions : Front: L C R, Side: L R, LFE
Sampling rate : 48.0 kHz
Frame rate : 31.250 FPS (1536 SPF)
Bit depth : 16 bits
Compression mode : Lossy
Delay relative to video : -120 ms
Stream size : 134 MiB (6%)
Language : Russian
Service kind : Complete Main
Audio #2
ID : 2905 (0xB59)
Menu ID : 5640 (0x1608)
Format : MPEG Audio
Format version : Version 1
Format profile : Layer 2
Codec ID : 3
Duration : 48 min 55 s
Bit rate mode : Constant
Bit rate : 192 kb/s
Channel(s) : 2 channels
Sampling rate : 48.0 kHz
Frame rate : 41.667 FPS (1152 SPF)
Compression mode : Lossy
Delay relative to video : -120 ms
Stream size : 67.2 MiB (3%)
Language : Russian

Скриншоты


[cybertorrent.ru].t7204.torrent 
Торрент: Зарегистрирован [ 2019-09-29 17:07 ] · 65D2CDDF2FC4DE742EB306EAA7B1882E99772634

Скачать .torrent

Скачать

45 KB

Статус: проверено
Скачан: 0 раз
Размер: 8,78 GB
terms.php
Показать сообщения:    

Текущее время: 09-Дек 16:49

Часовой пояс: UTC ± 0



Вы не можете начинать темы
Вы не можете отвечать на сообщения
Вы не можете редактировать свои сообщения
Вы не можете удалять свои сообщения
Вы не можете голосовать в опросах
Вы не можете прикреплять файлы к сообщениям
Вы можете скачивать файлы