Статистика раздачи
Размер:  2,5 GB   |    Зарегистрирован:  20 дней   |    Скачан:  0 раз
Сидов:  91  [  0 KB/s  ]   Личеров:  7  [  0 KB/s  ]  
   
 

Гость ®

Пол:
Не указан

Не ждали
Год выпуска: 2018
Производство: Фаворит-фильм
Жанр: драма
Продолжительность: ~00:48:00 серия
Субтитры: нет
Режиссёр: Виктор Мережко
В ролях: Олег Басилашвили, Евгений Князев, Иван Колесников, Ольга Хохлова , Владимир Кошевой, Александр Большаков , Нелли Попова, Хельга Филиппова
Описание: История, рассказанная в фильме, касается важнейшей моральной темы — ответственности за содеянное. Мы живем в мире, переплетенном разноплановыми поступками — и добропорядочными, и злонамеренными. И истина состоит в том, что все в жизни подчинено закону бумеранга: добро возвращается добром, разрушение — разрушением. Нельзя, невозможно, недопустимо жить по принципам безнравственности, безнаказанности. Недопустимо строить собственное благополучие на несчастье других, ибо наказания за принесенные несчастья рано или поздно непременно вернутся.

Реклама: Нет.
Кинопоиск
Все раздачи сериала
Sample
Качество: HDTVRip - GeneralFilm
Формат: AVI
Видео кодек: XviD
Аудио кодек: AC3
Видео: 720x400 (1.80:1), 25 fps, XviD, ~1600 kbps avg, 0.221 bit/pixel
Аудио: 48.0 kHz, AC3 Dolby Digital, 2/0 (L,R) ch, ~ 192 kbps

MI

General
Complete name : D:\Ne zhdali.HDTVRip.GeneralFilm\01.Ne zhdali.HDTVRip.GeneralFilm.avi
Format : AVI
Format/Info : Audio Video Interleave
File size : 628 MiB
Duration : 48 min 55 s
Overall bit rate : 1 794 kb/s
Writing application : VirtualDubMod 1.5.10.3 | www.virtualdub-fr.org || (build 2550/release)
Writing library : VirtualDubMod build 2550/release
Video
ID : 0
Format : MPEG-4 Visual
Format profile : Advanced Simple@L5
Format settings : BVOP1 / Custom Matrix
Format settings, BVOP : 1
Format settings, QPel : No
Format settings, GMC : No warppoints
Format settings, Matrix : Custom
Codec ID : XVID
Codec ID/Hint : XviD
Duration : 48 min 55 s
Bit rate : 1 592 kb/s
Width : 720 pixels
Height : 400 pixels
Display aspect ratio : 16:9
Frame rate : 25.000 FPS
Color space : YUV
Chroma subsampling : 4:2:0
Bit depth : 8 bits
Scan type : Progressive
Compression mode : Lossy
Bits/(Pixel*Frame) : 0.221
Stream size : 557 MiB (89%)
Writing library : XviD 1.2.1 (UTC 2008-12-04)
Audio
ID : 1
Format : AC-3
Format/Info : Audio Coding 3
Codec ID : 2000
Duration : 48 min 55 s
Bit rate mode : Constant
Bit rate : 192 kb/s
Channel(s) : 2 channels
Channel positions : Front: L R
Sampling rate : 48.0 kHz
Frame rate : 31.250 FPS (1536 SPF)
Bit depth : 16 bits
Compression mode : Lossy
Stream size : 67.2 MiB (11%)
Alignment : Split accross interleaves
Interleave, duration : 40 ms (1.00 video frame)
Interleave, preload duratio : 500 ms
Service kind : Complete Main

Скриншоты


[cybertorrent.ru].t7205.torrent 
Торрент: Зарегистрирован [ 2019-09-29 17:07 ] · 259D78FF9A14F2FE7B070F339416A70BC47B7FEE

Скачать .torrent

Скачать

13 KB

Статус: проверено
Скачан: 0 раз
Размер: 2,5 GB
terms.php
Показать сообщения:    

Текущее время: 20-Окт 05:52

Часовой пояс: UTC ± 0



Вы не можете начинать темы
Вы не можете отвечать на сообщения
Вы не можете редактировать свои сообщения
Вы не можете удалять свои сообщения
Вы не можете голосовать в опросах
Вы не можете прикреплять файлы к сообщениям
Вы можете скачивать файлы