Статистика раздачи
Размер:  4,36 GB   |    Зарегистрирован:  3 месяца 10 дней   |    Скачан:  0 раз

Полного источника не было: Никогда

Личеров:  1  [  0 KB/s  ]  
 
   
 
 

Zima ®

Пол:
Не указан
Стаж:
3 месяца 11 дней
Сообщений:
293

Весь Жванецкий. Полное собрание сочинений
Год выпуска: 1998
Страна: Россия
Жанр: Юмор
Продолжительность: 07:29:51
Выпущено: Киностудия «НТВ»
Режиссер: Александр Файфман
Продюсер: Леонид Парфенов
Описание: Полное собрание сочинений, в которое вошли избранные миниатюры от начала творческой деятельности до середины 90-х годов.
Качество: DVD5 (сжатый)
Формат: DVD Video
Видео: MPEG2 Video 352x576 (4:3) (768x576 анаморф)
Аудио: Dolby AC3 48000Hz stereo [AC3]

Тех. данные

vts_01_0.ifo

General
Format : MPEG-PS
File size : 2.17 GiB
Duration : 3 h 43 min
Overall bit rate mode : Constant
Overall bit rate : 1 386 kb/s
Video
ID : 224 (0xE0)
Format : MPEG Video
Format version : Version 2
Format profile : Main@Main
Format settings, BVOP : Yes
Format settings, Matrix : Custom
Format settings, GOP : M=3, N=15
Duration : 3 h 43 min
Bit rate mode : Constant
Bit rate : 1 198 kb/s
Maximum bit rate : 1 500 kb/s
Width : 352 pixels
Height : 576 pixels
Display aspect ratio : 4:3
Frame rate : 25.000 FPS
Standard : PAL
Color space : YUV
Chroma subsampling : 4:2:0
Bit depth : 8 bits
Scan type : Progressive
Compression mode : Lossy
Bits/(Pixel*Frame) : 0.236
Time code of first frame : 00:00:00:00
Time code source : Group of pictures header
Stream size : 1.87 GiB (86%)
Audio
ID : 189 (0xBD)-128 (0x80)
Format : AC-3
Format/Info : Audio Coding 3
Mode extension : CM (complete main)
Format settings, Endianness : Big
Muxing mode : DVD-Video
Duration : 3 h 43 min
Bit rate mode : Constant
Bit rate : 160 kb/s
Channel(s) : 2 channels
Channel positions : Front: L R
Sampling rate : 48.0 kHz
Frame rate : 31.250 FPS (1536 spf)
Bit depth : 16 bits
Compression mode : Lossy
Stream size : 256 MiB (12%)
Menu

vts_02_0.ifo

General
Format : MPEG-PS
File size : 2.19 GiB
Duration : 3 h 46 min
Overall bit rate mode : Constant
Overall bit rate : 1 388 kb/s
Video
ID : 224 (0xE0)
Format : MPEG Video
Format version : Version 2
Format profile : Main@Main
Format settings, BVOP : Yes
Format settings, Matrix : Custom
Format settings, GOP : Variable
Duration : 3 h 46 min
Bit rate mode : Constant
Bit rate : 1 201 kb/s
Maximum bit rate : 1 500 kb/s
Width : 352 pixels
Height : 576 pixels
Display aspect ratio : 4:3
Frame rate : 25.000 FPS
Standard : PAL
Color space : YUV
Chroma subsampling : 4:2:0
Bit depth : 8 bits
Scan type : Progressive
Compression mode : Lossy
Bits/(Pixel*Frame) : 0.237
Time code of first frame : 00:00:00:00
Time code source : Group of pictures header
Stream size : 1.90 GiB (86%)
Audio
ID : 189 (0xBD)-128 (0x80)
Format : AC-3
Format/Info : Audio Coding 3
Mode extension : CM (complete main)
Format settings, Endianness : Big
Muxing mode : DVD-Video
Duration : 3 h 46 min
Bit rate mode : Constant
Bit rate : 160 kb/s
Channel(s) : 2 channels
Channel positions : Front: L R
Sampling rate : 48.0 kHz
Frame rate : 31.250 FPS (1536 spf)
Bit depth : 16 bits
Compression mode : Lossy
Stream size : 259 MiB (12%)
Menu

Скриншоты

Альтернативные раздачи
[cybertorrent.ru].t722.torrent 
Торрент: Зарегистрирован [ 2018-02-15 22:25 ] · 4C9A33FDCCD9921586BEDD265950FA73CB4F3ABD

Скачать .torrent

Скачать

23 KB

Статус: проверено
Скачан: 0 раз
Размер: 4,36 GB
Профиль [ЛС]
Показать сообщения:    

Текущее время: 26-Май 15:30

Часовой пояс: UTC ± 0



Вы не можете начинать темы
Вы не можете отвечать на сообщения
Вы не можете редактировать свои сообщения
Вы не можете удалять свои сообщения
Вы не можете голосовать в опросах
Вы не можете прикреплять файлы к сообщениям
Вы можете скачивать файлы