Статистика раздачи
Размер:  1,37 GB   |    Зарегистрирован:  3 месяца 7 дней   |    Скачан:  0 раз

Полного источника не было: Никогда

 
   
 
 

lopster ®

Пол:
Не указан
Стаж:
3 месяца 7 дней
Сообщений:
612

Только вернись
Год выпуска: 2008
Жанр: Мелодрама
Продолжительность: 01:21:51
Режиссер: Роман Фокин
В ролях: Павел Трубинер, Виктория Полторак, Наталья Антонова.
Описание: Молоденькая медсестра детской поликлиники Юлия, чудом не погибшая в юности от криминального аборта, случайно знакомится с симпатичным мужчиной Михаилом. Михаил вступился за нее, когда бывший любимый вышвырнул Юлю на улицу, да еще и избил. Несчастная девушка влюбляется в своего защитника и, цепляясь за свой последний, как она считает, шанс устроить личную жизнь, Юля пытается занять в Мишином сердце место законной супруги Лизы и сына Кирюши. Михаил, уставший от ссор с женой и постоянного напряжения из-за болезни ребенка, сначала берется опекать беззащитную девушку, но со временем понимает, что сделал большую ошибку. Юля познакомилась с его женой в детской поликлинике и стала приходить в их дом на правах Лизиной подруги...
Все раздачи фильма: Только вернись
Качество: DVDRip
Формат: AVI
Видео кодек: DivX
Аудио кодек: AC3
Видео: 720x400 (1.80:1), 25 fps, DivX Codec 5.x or 6.x ~1937 kbps avg, 0.27 bit/pixel
Аудио: 48 kHz, AC3 Dolby Digital, 2/0 (L,R) ch, ~448.00 kbps avg

MI

Код:Общее
Полное имя : C:\otkat\Видео\Только вернись\Tolko.Vernis.2008.DivX.DVDRip.Kinozal.ws.[torrents.ru].avi
Формат : AVI
Формат/Информация : Audio Video Interleave
Размер файла : 1,37 Гбайт
Продолжительность : 1 ч. 21 м.
Общий поток : 2392 Кбит/сек
Программа кодирования : VirtualDubMod 1.5.4.1 (build 2178/release)
Библиотека кодирования : VirtualDubMod build 2178/release
Видео
Идентификатор : 0
Формат : MPEG-4 Visual
Параметр BVOP формата : 1
Параметр QPel формата : Нет
Параметр GMC формата : Без точки перехода
Параметр матрицы формата : Default (H.263)
Режим смешивания : Сжатый битовый поток
Идентификатор кодека : DX50
Идентификатор кодека/Подсказка : DivX 5
Продолжительность : 1 ч. 21 м.
Битрейт : 1937 Кбит/сек
Ширина : 720 пикселей
Высота : 400 пикселей
Соотношение сторон : 16:9
Частота кадров : 25,000 кадров/сек
Цветовое пространство : YUV
Субдискретизация насыщенности : 4:2:0
Битовая глубина : 8 бит
Тип развёртки : Прогрессивная
Метод сжатия : С потерями
Бит/(Пиксели*Кадры) : 0.269
Размер потока : 1,11 Гбайт (81%)
Библиотека кодирования : DivX 6.7.0 (UTC 2007-09-20)
Аудио
Идентификатор : 1
Формат : AC-3
Формат/Информация : Audio Coding 3
Расширение режима : CM (complete main)
Параметр Endianness формата : Big
Идентификатор кодека : 2000
Продолжительность : 1 ч. 21 м.
Вид битрейта : Постоянный
Битрейт : 448 Кбит/сек
Каналы : 2 канала
Расположение каналов : Front: L R
Частота : 48,0 КГц
Частота кадров : 31,250 кадров/сек (1536 spf)
Метод сжатия : С потерями
Размер потока : 262 Мбайт (19%)
Выравнивание : Разделение по промежуткам
Продолжительность промежутка : 96 мс. (2,40 видеокадра)
Время предзагрузки промежутка : 96 мс.
Язык : Russian

Скриншоты

[cybertorrent.ru].t73.torrent 
Торрент: Зарегистрирован [ 2018-02-15 13:57 ] · 09DCCE70E961A0427DFC19EA2F67AD7EA7B0FE58

Скачать .torrent

Скачать

14 KB

Статус: проверено
Скачан: 0 раз
Размер: 1,37 GB
Профиль [ЛС]
Показать сообщения:    

Текущее время: 23-Май 07:23

Часовой пояс: UTC ± 0



Вы не можете начинать темы
Вы не можете отвечать на сообщения
Вы не можете редактировать свои сообщения
Вы не можете удалять свои сообщения
Вы не можете голосовать в опросах
Вы не можете прикреплять файлы к сообщениям
Вы можете скачивать файлы